Торрент файл
скачать торрент магнет ссылка Добавлен: 10 янв 2015, 03:16
Размер: 10.52 ГБ
Сидеров: 343
Личеров: 15
Автор

СообщениеДобавлено: 10 янв 2015, 03:16 

Не в сети
Супермодератор
Аватара пользователя
Дата регистрации:
06 июн 2014, 07:51
Спасибо: 619 / 0
Сообщения: 2001
Информация о фильме
Название: Теорема Зеро
Оригинальное название: The Zero Theorem
Год выхода: 2013
Жанр: фантастика, триллер, драма, комедия
Режиссёр: Терри Гиллиам
В ролях: Кристоф Вальц, Мелани Тьерри, Дэвид Тьюлис, Лукас Хеджес, Мэтт Дэймон, Бен Уишоу, Тильда Суинтон, Санджив Бхаскар, Ингрид Бису, Маргарита Дойл

О фильме: Эксцентричный компьютерный гений Коэн Лет бьется над неразрешимой теоремой. Благодаря костюму для виртуальной реальности, изобретенному мальчиком Бобом, Лету удается совершить путешествие в скрытое пространство и узнать тайну своей души. Эту разгадку ищет не только он сам, но и таинственный Менеджмент, который правит всем миром посредством всевидящих устройств под названием ManCams.



Выпущено: США, Румыния, Великобритания, Франция
Продолжительность: 01:46:27
Перевод: Профессиональный (полное дублирование) - Лицензия R5
Авторский (одноголосый закадровый) - Ю. Сербин
Любительский (одноголосый закадровый) - PashaUP

Файл
Качество: BDRip 1080p
Формат: MKV
Видео: MPEG4/AVC, 1816х1036 (16:9), 10.2 Мбит/сек, 23.976 кадра/сек
Аудио 1: AC3, 6 каналов, 384 Кбит/сек | Русский - R5
Аудио 2: AC3, 6 каналов, 384 Кбит/сек | Русский - Ю. Сербин
Аудио 3: AC3, 6 каналов, 448 Кбит/сек | Русский - PashaUP
Аудио 4: AC3, 6 каналов, 448 Кбит/сек | Французский
Аудио 5: DTS, 6 каналов, 768 Кбит/сек | Русский - PashaUP
Аудио 6: DTS, 6 каналов, 1509 Кбит/сек | Английский
Субтитры: Русские, английские (Full, SDH, SDH-Colored), французские, датские, финские, италианские, норвежские, шведские, португальские, испанские, румынские
Навигация по главам: Есть
Общее
Уникальный идентификатор : 228682853797684212894905531235900241752 (0xAC0AB730E2C6E5F88D10C00F2092B758)
Полное имя : The Zero Theorem. (2013) BDRip 1080p.mkv
Формат : Matroska
Версия формата : Version 2
Размер файла : 10,5 Гбайт
Продолжительность : 1 ч. 46 м.
Общий поток : 14,1 Мбит/сек
Название фильма : The Zero Theorem. 2013
Дата кодирования : UTC 2015-01-09 12:28:38
Программа кодирования : mkvmerge v5.8.0 ('No Sleep / Pillow') built on Sep 2 2012 15:37:04
Библиотека кодирования : libebml v1.2.3 + libmatroska v1.3.0
Видео
Идентификатор : 1
Формат : AVC
Формат/Информация : Advanced Video Codec
Профиль формата : High@L4.1
Параметр CABAC формата : Да
Параметр ReFrames формата : 4 кадра
Идентификатор кодека : V_MPEG4/ISO/AVC
Продолжительность : 1 ч. 46 м.
Битрейт : 10,2 Мбит/сек
Ширина : 1816 пикселей
Высота : 1036 пикселей
Соотношение сторон : 16:9
Режим частоты кадров : Постоянный
Частота кадров : 23,976 кадра/сек
Цветовое пространство : YUV
Субдискретизация насыщенности : 4:2:0
Битовая глубина : 8 бит
Тип развёртки : Прогрессивная
Бит/(Пиксели*Кадры) : 0.226
Размер потока : 7,38 Гбайт (70%)
Заголовок : CHD
Библиотека кодирования : x264 core 138 r2356 a1d3d17
Настройки программы : cabac=1 / ref=4 / deblock=1:-3:-3 / analyse=0x3:0x113 / me=umh / subme=10 / psy=1 / psy_rd=1.00:0.05 / mixed_ref=1 / me_range=32 / chroma_me=1 / trellis=2 / 8x8dct=1 / cqm=0 / deadzone=21,11 / fast_pskip=0 / chroma_qp_offset=-2 / threads=18 / lookahead_threads=1 / sliced_threads=0 / nr=0 / decimate=1 / interlaced=0 / bluray_compat=0 / constrained_intra=0 / bframes=5 / b_pyramid=2 / b_adapt=2 / b_bias=0 / direct=3 / weightb=1 / open_gop=0 / weightp=2 / keyint=250 / keyint_min=23 / scenecut=40 / intra_refresh=0 / rc=2pass / mbtree=0 / bitrate=10203 / ratetol=1.0 / qcomp=0.70 / qpmin=0 / qpmax=69 / qpstep=4 / cplxblur=20.0 / qblur=0.5 / ip_ratio=1.40 / pb_ratio=1.30 / aq=2:1.00
Язык : English
Default : Да
Forced : Нет
Аудио #1
Идентификатор : 2
Формат : AC-3
Формат/Информация : Audio Coding 3
Расширение режима : CM (complete main)
Параметр Endianness формата : Big
Идентификатор кодека : A_AC3
Продолжительность : 1 ч. 46 м.
Вид битрейта : Постоянный
Битрейт : 384 Кбит/сек
Каналы : 6 каналов
Расположение каналов : Front: L C R, Side: L R, LFE
Частота : 48,0 КГц
Битовая глубина : 16 бит
Метод сжатия : С потерями
Размер потока : 292 Мбайт (3%)
Заголовок : D | License | R5
Язык : Russian
Default : Да
Forced : Нет
Аудио #2
Идентификатор : 3
Формат : AC-3
Формат/Информация : Audio Coding 3
Расширение режима : CM (complete main)
Параметр Endianness формата : Big
Идентификатор кодека : A_AC3
Продолжительность : 1 ч. 46 м.
Вид битрейта : Постоянный
Битрейт : 384 Кбит/сек
Каналы : 6 каналов
Расположение каналов : Front: L C R, Side: L R, LFE
Частота : 48,0 КГц
Битовая глубина : 16 бит
Метод сжатия : С потерями
Размер потока : 292 Мбайт (3%)
Заголовок : A | Сербин
Язык : Russian
Default : Нет
Forced : Нет
Аудио #3
Идентификатор : 4
Формат : AC-3
Формат/Информация : Audio Coding 3
Расширение режима : CM (complete main)
Параметр Endianness формата : Big
Идентификатор кодека : A_AC3
Продолжительность : 1 ч. 46 м.
Вид битрейта : Постоянный
Битрейт : 448 Кбит/сек
Каналы : 6 каналов
Расположение каналов : Front: L C R, Side: L R, LFE
Частота : 48,0 КГц
Битовая глубина : 16 бит
Метод сжатия : С потерями
Размер потока : 341 Мбайт (3%)
Заголовок : L1 | PashaUP
Язык : Russian
Default : Нет
Forced : Нет
Аудио #4
Идентификатор : 5
Формат : AC-3
Формат/Информация : Audio Coding 3
Расширение режима : CM (complete main)
Параметр Endianness формата : Big
Идентификатор кодека : A_AC3
Продолжительность : 1 ч. 46 м.
Вид битрейта : Постоянный
Битрейт : 448 Кбит/сек
Каналы : 6 каналов
Расположение каналов : Front: L C R, Side: L R, LFE
Частота : 48,0 КГц
Битовая глубина : 16 бит
Метод сжатия : С потерями
Размер потока : 341 Мбайт (3%)
Заголовок : French
Язык : French
Default : Нет
Forced : Нет
Аудио #5
Идентификатор : 6
Формат : DTS
Формат/Информация : Digital Theater Systems
Режим : 16
Параметр Endianness формата : Big
Идентификатор кодека : A_DTS
Продолжительность : 1 ч. 46 м.
Вид битрейта : Постоянный
Битрейт : 768 Кбит/сек
Каналы : 6 каналов
Расположение каналов : Front: L C R, Side: L R, LFE
Частота : 48,0 КГц
Битовая глубина : 24 бит
Метод сжатия : С потерями
Размер потока : 585 Мбайт (5%)
Заголовок : L1 | PashaUP
Язык : Russian
Default : Нет
Forced : Нет
Аудио #6
Идентификатор : 7
Формат : DTS
Формат/Информация : Digital Theater Systems
Режим : 16
Параметр Endianness формата : Big
Идентификатор кодека : A_DTS
Продолжительность : 1 ч. 46 м.
Вид битрейта : Постоянный
Битрейт : 1509 Кбит/сек
Каналы : 6 каналов
Расположение каналов : Front: L C R, Side: L R, LFE
Частота : 48,0 КГц
Битовая глубина : 16 бит
Метод сжатия : С потерями
Размер потока : 1,12 Гбайт (11%)
Заголовок : Original
Язык : English
Default : Нет
Forced : Нет
Текст #1
Идентификатор : 8
Формат : UTF-8
Идентификатор кодека : S_TEXT/UTF8
Идентификатор кодека/Информация : UTF-8 Plain Text
Заголовок : Full | WARgos91
Язык : Russian
Default : Нет
Forced : Нет
Текст #2
Идентификатор : 9
Формат : UTF-8
Идентификатор кодека : S_TEXT/UTF8
Идентификатор кодека/Информация : UTF-8 Plain Text
Заголовок : Full
Язык : English
Default : Нет
Forced : Нет
Текст #3
Идентификатор : 10
Формат : UTF-8
Идентификатор кодека : S_TEXT/UTF8
Идентификатор кодека/Информация : UTF-8 Plain Text
Заголовок : SDH
Язык : English
Default : Нет
Forced : Нет
Текст #4
Идентификатор : 11
Формат : UTF-8
Идентификатор кодека : S_TEXT/UTF8
Идентификатор кодека/Информация : UTF-8 Plain Text
Заголовок : SDH-Colored
Язык : English
Default : Нет
Forced : Нет
Текст #5
Идентификатор : 12
Формат : UTF-8
Идентификатор кодека : S_TEXT/UTF8
Идентификатор кодека/Информация : UTF-8 Plain Text
Язык : French
Default : Нет
Forced : Нет
Текст #6
Идентификатор : 13
Формат : UTF-8
Идентификатор кодека : S_TEXT/UTF8
Идентификатор кодека/Информация : UTF-8 Plain Text
Язык : Danish
Default : Нет
Forced : Нет
Текст #7
Идентификатор : 14
Формат : UTF-8
Идентификатор кодека : S_TEXT/UTF8
Идентификатор кодека/Информация : UTF-8 Plain Text
Язык : Finnish
Default : Нет
Forced : Нет
Текст #8
Идентификатор : 15
Формат : UTF-8
Идентификатор кодека : S_TEXT/UTF8
Идентификатор кодека/Информация : UTF-8 Plain Text
Язык : Italian
Default : Нет
Forced : Нет
Текст #9
Идентификатор : 16
Формат : UTF-8
Идентификатор кодека : S_TEXT/UTF8
Идентификатор кодека/Информация : UTF-8 Plain Text
Язык : Norwegian
Default : Нет
Forced : Нет
Текст #10
Идентификатор : 17
Формат : UTF-8
Идентификатор кодека : S_TEXT/UTF8
Идентификатор кодека/Информация : UTF-8 Plain Text
Язык : Swedish
Default : Нет
Forced : Нет
Текст #11
Идентификатор : 18
Формат : UTF-8
Идентификатор кодека : S_TEXT/UTF8
Идентификатор кодека/Информация : UTF-8 Plain Text
Заголовок : br
Язык : Portuguese
Default : Нет
Forced : Нет
Текст #12
Идентификатор : 19
Формат : UTF-8
Идентификатор кодека : S_TEXT/UTF8
Идентификатор кодека/Информация : UTF-8 Plain Text
Язык : Spanish
Default : Нет
Forced : Нет
Текст #13
Идентификатор : 20
Формат : UTF-8
Идентификатор кодека : S_TEXT/UTF8
Идентификатор кодека/Информация : UTF-8 Plain Text
Язык : Romanian
Default : Нет
Forced : Нет
Меню
00:00:00.000 : en:00:00:00.000
00:05:37.963 : en:00:05:37.963
00:12:46.474 : en:00:12:46.474
00:20:42.032 : en:00:20:42.032
00:26:03.479 : en:00:26:03.479
00:34:39.119 : en:00:34:39.119
00:38:38.274 : en:00:38:38.274
00:43:15.760 : en:00:43:15.760
00:47:40.900 : en:00:47:40.900
00:55:51.557 : en:00:55:51.557
01:00:55.110 : en:01:00:55.110
01:05:50.613 : en:01:05:50.613
01:15:47.460 : en:01:15:47.460
01:25:13.442 : en:01:25:13.442
01:32:21.536 : en:01:32:21.536
01:38:55.930 : en:01:38:55.930




реклама партнёра


Вернуться к началу
 Профиль Отправить личное сообщение  
 
   Похожие торренты   Автор   Торрент   Размер 
В этой теме нет новых непрочитанных сообщений. Пришельцы / Les Visiteurs [фантастика, фэнтези, комедия, 1993] BDRip 1080p, Dub+3Mvo+2Avo+Sub

salma3

55 | 7

10.9 ГБ

В этой теме нет новых непрочитанных сообщений. Под прицелом / Silent Trigger [Боевик, триллер, драма, 1996] BDRip 1080p, 2Dvo+2Avo+Sub

salma3

38 | 8

7.35 ГБ

В этой теме нет новых непрочитанных сообщений. Нападение на 13-й участок / Assault on Precinct 13 [Боевик, триллер, драма, криминал, 1976] BDRip 1080p, 2Mvo+2Avo+Sub

salma3

6 | 2

10.1 ГБ

В этой теме нет новых непрочитанных сообщений. Сверхновая / Supernova [Ужасы, фантастика, триллер, 2000] BDRip 720p, Mvo+Dvo+2Avo+Sub

salma3

50 | 11

7.23 ГБ

В этой теме нет новых непрочитанных сообщений. Вышибала / Goon [комедия, спорт, 2011] BDRip 1080p, Dub+2Avo

salma3

52 | 10

9.13 ГБ

В этой теме нет новых непрочитанных сообщений. Следующая пятница / Next Friday [комедия, 2000] BDRip 1080p, dub+2avo+sub

salma3

28 | 58

11.18 ГБ

В этой теме нет новых непрочитанных сообщений. 12 обезьян / Twelve Monkeys [фантастика, триллер, детектив, 1995] BDRip 720p, Dub+Dvo+2Avo+Sub

salma3

8 | 11

6.77 ГБ


Начать новую тему Ответить на тему  [ 1 сообщение ] 




Для Мосгорсуда, Роскомнадзора и рекламодателей:: mosgorsud-torrent[собачка]yandex.ru