Торрент файл
скачать торрент магнет ссылка Добавлен: 09 янв 2015, 11:27
Размер: 5.65 ГБ
Сидеров: 1
Личеров: 5
Автор

СообщениеДобавлено: 09 янв 2015, 11:27 

Не в сети
Зам. Админа
Аватара пользователя
Дата регистрации:
02 дек 2010, 12:39
Спасибо: 12625 / 214
Сообщения: 28010
Год выхода: 2014
Жанр: Фантастика,Триллер,Комедия
Режиссер: Фрут Чан
В ролях: Ю-Нам Вонг, Дженис Ман, Саймон Ям, Кара Хуи, Тинг Яу Цуй, Сует Лам, Гу-Би ДжейСи, Шин-Чюн Ли, Сэм Ли, Черри Нган

О фильме:
Восемнадцать... нет, 16 пассажиров, севших в маршрутное такси (и водитель, конечно), отправляются из Монкока в Тайпоу. Как только красная маршрутка проходит тоннель Лайон-Рок - переход с Коулуна на новые территории, - Гонконг становится городом-призраком. По прибытии в Тайпоу все, находившиеся в автобусе, начинают понимать, что что-то не так. Почему на улицах пусто? Где все? Почему на их звонки никто не отвечает? И кто эти таинственные фигуры в масках, время от времени появляющиеся перед растерянными пассажирами?


Качество: BDRip [720p]
Видео: MPEG4/ISO/AVC, 1280х544, 24,000 кадра/сек, 5300 Кбит/сек
Аудио 1: Русский (АС3, 48 kHz, 6 ch, 640 kbps avg)  
Аудио 2: Китайский (AC3, 48 kHz, 6 ch, 640 kbps avg)    
Субтитры: Русские, Английские
Продолжительность: 02:00:34
Перевод: Любительский (двухголосый) [DeadSno & den904]
Общее
Уникальный идентификатор : 245317470515000671625841016853511771344 (0xB88E6D1DB63D8FA1A2D426E7BC3394D0)
Полное имя : D:ТОРРЕНТЫThe.Midnight.After.2014.Blu.Ray.720p..mkv
Формат : Matroska
Версия формата : Version 4 / Version 2
Размер файла : 5,65 Гбайт
Продолжительность : 2 ч. 0 м.
Общий поток : 6713 Кбит/сек
Название фильма : Release Group CINEMANIA  
Дата кодирования : UTC 2015-01-08 23:01:58
Программа кодирования : mkvmerge v7.5.0 ('Glass Culture') 64bit built on Jan 4 2015 16:48:44
Библиотека кодирования : libebml v1.3.1 + libmatroska v1.4.2

Видео
Идентификатор : 1
Формат : AVC
Формат/Информация : Advanced Video Codec
Профиль формата : High@L4.1
Параметр CABAC формата : Да
Параметр ReFrames формата : 12 кадров
Идентификатор кодека : V_MPEG4/ISO/AVC
Битрейт : 5300 Кбит/сек
Ширина : 1280 пикселей
Высота : 544 пикселя
Соотношение сторон : 2,35:1
Режим частоты кадров : Переменный
Частота кадров в оригинале : 24,000 кадра/сек
Цветовое пространство : YUV
Субдискретизация насыщенности : 4:2:0
Битовая глубина : 8 бит
Тип развёртки : Прогрессивная
Заголовок : Release Group CINEMANIA
Библиотека кодирования : x264 core 133 r2334 a3ac64b
Настройки программы : cabac=1 / ref=12 / deblock=1:-3:-3 / analyse=0x3:0x133 / me=umh / subme=10 / psy=1 / psy_rd=1.10:0.00 / mixed_ref=1 / me_range=24 / chroma_me=1 / trellis=2 / 8x8dct=1 / cqm=0 / deadzone=21,11 / fast_pskip=0 / chroma_qp_offset=-2 / threads=6 / lookahead_threads=1 / sliced_threads=0 / nr=0 / decimate=0 / interlaced=0 / bluray_compat=0 / constrained_intra=0 / bframes=9 / b_pyramid=2 / b_adapt=2 / b_bias=0 / direct=3 / weightb=1 / open_gop=0 / weightp=2 / keyint=250 / keyint_min=24 / scenecut=40 / intra_refresh=0 / rc=crf / mbtree=0 / crf=15.0 / qcomp=0.70 / qpmin=0 / qpmax=69 / qpstep=4 / ip_ratio=1.20 / pb_ratio=1.20 / aq=2:0.70
Язык : Chinese
Default : Да
Forced : Нет

Аудио #1
Идентификатор : 2
Формат : AC-3
Формат/Информация : Audio Coding 3
Расширение режима : CM (complete main)
Параметр Endianness формата : Big
Идентификатор кодека : A_AC3
Продолжительность : 2 ч. 0 м.
Вид битрейта : Постоянный
Битрейт : 640 Кбит/сек
Каналы : 6 каналов
Расположение каналов : Front: L C R, Side: L R, LFE
Частота : 48,0 КГц
Битовая глубина : 16 бит
Метод сжатия : С потерями
Размер потока : 552 Мбайт (10%)
Заголовок : Влад и Снежинка
Язык : Russian
Default : Да
Forced : Да

Аудио #2
Идентификатор : 3
Формат : AC-3
Формат/Информация : Audio Coding 3
Расширение режима : CM (complete main)
Параметр Endianness формата : Big
Идентификатор кодека : A_AC3
Продолжительность : 2 ч. 0 м.
Вид битрейта : Постоянный
Битрейт : 640 Кбит/сек
Каналы : 6 каналов
Расположение каналов : Front: L C R, Side: L R, LFE
Частота : 48,0 КГц
Битовая глубина : 16 бит
Метод сжатия : С потерями
Размер потока : 552 Мбайт (10%)
Язык : Chinese
Default : Нет
Forced : Нет

Текст #1
Идентификатор : 4
Формат : UTF-8
Идентификатор кодека : S_TEXT/UTF8
Идентификатор кодека/Информация : UTF-8 Plain Text
Заголовок : forced
Язык : Russian
Default : Да
Forced : Да

Текст #2
Идентификатор : 5
Формат : UTF-8
Идентификатор кодека : S_TEXT/UTF8
Идентификатор кодека/Информация : UTF-8 Plain Text
Заголовок : mitrichojisan
Язык : Russian
Default : Нет
Forced : Нет

Текст #3
Идентификатор : 6
Формат : UTF-8
Идентификатор кодека : S_TEXT/UTF8
Идентификатор кодека/Информация : UTF-8 Plain Text
Язык : English
Default : Нет
Forced : Нет








реклама партнёра


Вернуться к началу
 Профиль  
 
   Похожие торренты   Автор   Торрент   Размер 
В этой теме нет новых непрочитанных сообщений. Следующая полночь / Na yeh ling san, ngo joa seung liu Wong Gok hoi wong dai bou dik hung Van (Фрут Чан) [Фантастика, Триллер, Комедия, 2014] HDRip, dvo

Dracon

15 | 4

1.46 ГБ

В этой теме нет новых непрочитанных сообщений. Следующая полночь / The Midnight After (Фрут Чан) [2014, триллер, комедия, детектив, фантастика, HDRip] dvo

Nickolas3435

760 | 54

2.07 ГБ

В этой теме нет новых непрочитанных сообщений. Королевские воины / Wong ga jin si [Боевик, боевые искусства, 1986] BDRip 720p, Avo

salma3

44 | 7

3.92 ГБ

В этой теме нет новых непрочитанных сообщений. Хитмэн / Sat sau ji wong [Боевик, комедия, 1998] BDRip 1080p, Mvo

salma3

77 | 17

6.75 ГБ

В этой теме нет новых непрочитанных сообщений. История о Рикки / Riki-Oh: The Story of Ricky / Lik Wong [ужасы, боевик, комедия, 1991] BDRip-AVC, Avo

salma3

19 | 4

743.11 МБ

В этой теме нет новых непрочитанных сообщений. Королевские воины / Wong ga jin si [Боевик, боевые искусства, 1986] BDRip 1080p, Avo

salma3

25 | 18

6.85 ГБ

В этой теме нет новых непрочитанных сообщений. Porn Star Legends [1995 г., All Sex, DVDRip] Aja, Anna Malle, Candy Samples, Jacqueline Lorains, Kristara Barington, Linda Wong, Loni Sanders, Megan Leigh, Raven, Shanna McCullough, Tracey Adams

salma3

8 | 2

10.13 ГБ


Начать новую тему Ответить на тему  [ 1 сообщение ] 




Для Мосгорсуда, Роскомнадзора и рекламодателей:: mosgorsud-torrent[собачка]yandex.ru