Торрент файл
скачать торрент магнет ссылка Добавлен: 02 янв 2015, 22:27
Размер: 7.55 ГБ
Сидеров: 34
Личеров: 5
Автор

СообщениеДобавлено: 02 янв 2015, 22:27 

Не в сети
Супермодератор
Аватара пользователя
Дата регистрации:
15 фев 2012, 16:44
Возраст: 28
Спасибо: 6643 / 2146
Сообщения: 45784
Год выхода: 1979
Жанр: Боевик, боевые искусства, драма
Режиссер: Ло Взй
В ролях: Джеки Чан, Нора Мяо, Джеймс Тиен, Ен Ши Кван, Као Чианг, Хси Хсу, Игл Хан

О фильме:
Воин Танг Хау Юэга теряет учителя. Его убил его давний соперник, отомстивший таким образом за любовную связь со своей женой. Женщина в отчаянии покончила с собой. Несчастный ревнивец, потрясенный ее смертью, отрубает себе ногу. Тан Хау Юэг поначалу решает отомстить убийце, но вскоре враги объединяются. Они должны сообща расследовать смерть вдовы Учителя, кем-то коварно отравленной…


Страна: Гонконг, Тайвань
Студия: Senate Distribution, Lo Wei Motion Picture Co
Продолжительность: 01:37:08
Перевод: Профессиональный многоголосый, авторский

Файл
Кодек: h.264
Качество: BDRip 1080p
Видео: MPEG-4, 1920x800, 10.3 Мбит/с, 23.976 кадр/с
Звук:
Аудио #1: Русский ( AC3, 2ch, 192 Кбит/с, 48.0 KHz) Профессиональный многоголосый (ДТВ)
Аудио #2: Русский (AC3, 2ch, 192 Кбит/с, 48.0 KHz) Авторский одноголосый (С.Визгунов)
Аудио #3: Китайский ( AC3, 6ch, 448 Кбит/с, 48.0 KHz) Оригинал
Complete name : Dragon.Fist.1979.BDRip.1080p.mkv
Format : Matroska
Format version : Version 4 / Version 2
File size : 7.55 GiB
Duration : 1h 37mn
Overall bit rate : 11.1 Mbps
Encoded date : UTC 2015-01-02 09:30:04
Writing application : mkvmerge v6.9.1 ('Blue Panther') 64bit built on Apr 18 2014 18:23:38
Writing library : libebml v1.3.0 + libmatroska v1.4.1

Video
ID : 1
Format : AVC
Format/Info : Advanced Video Codec
Format profile : High@L4.1
Format settings, CABAC : Yes
Format settings, ReFrames : 5 frames
Codec ID : V_MPEG4/ISO/AVC
Bit rate : 10.3 Mbps
Width : 1 920 pixels
Height : 800 pixels
Display aspect ratio : 2.40:1
Frame rate mode : Variable
Original frame rate : 23.976 fps
Color space : YUV
Chroma subsampling : 4:2:0
Bit depth : 8 bits
Scan type : Progressive
Bits/(Pixel*Frame) : 0.280
Title : Video
Writing library : x264 core 125 r2200 999b753
Encoding settings : cabac=1 / ref=5 / deblock=1:-1:-1 / analyse=0x3:0x133 / me=umh / subme=9 / psy=1 / psy_rd=1.00:0.15 / mixed_ref=1 / me_range=32 / chroma_me=1 / trellis=1 / 8x8dct=1 / cqm=0 / deadzone=21,11 / fast_pskip=1 / chroma_qp_offset=-3 / threads=6 / lookahead_threads=1 / sliced_threads=0 / nr=0 / decimate=1 / interlaced=0 / bluray_compat=0 / constrained_intra=0 / bframes=4 / b_pyramid=2 / b_adapt=2 / b_bias=0 / direct=3 / weightb=1 / open_gop=0 / weightp=2 / keyint=250 / keyint_min=23 / scenecut=40 / intra_refresh=0 / rc_lookahead=50 / rc=2pass / mbtree=1 / bitrate=10300 / ratetol=1.0 / qcomp=0.60 / qpmin=0 / qpmax=69 / qpstep=4 / cplxblur=20.0 / qblur=0.5 / ip_ratio=1.40 / aq=1:1.00
Default : Yes
Forced : No

Audio #1
ID : 2
Format : AC-3
Format/Info : Audio Coding 3
Mode extension : CM (complete main)
Format settings, Endianness : Big
Codec ID : A_AC3
Duration : 1h 37mn
Bit rate mode : Constant
Bit rate : 192 Kbps
Channel(s) : 2 channels
Channel positions : Front: L R
Sampling rate : 48.0 KHz
Bit depth : 16 bits
Compression mode : Lossy
Stream size : 133 MiB (2%)
Title : Audio 1 - ДТВ
Language : Russian
Default : No
Forced : No

Audio #2
ID : 3
Format : AC-3
Format/Info : Audio Coding 3
Mode extension : CM (complete main)
Format settings, Endianness : Big
Codec ID : A_AC3
Duration : 1h 37mn
Bit rate mode : Constant
Bit rate : 192 Kbps
Channel(s) : 2 channels
Channel positions : Front: L R
Sampling rate : 48.0 KHz
Bit depth : 16 bits
Compression mode : Lossy
Stream size : 133 MiB (2%)
Title : Audio 2 - С.Визгунов
Language : Russian
Default : No
Forced : No

Audio #3
ID : 4
Format : AC-3
Format/Info : Audio Coding 3
Mode extension : CM (complete main)
Format settings, Endianness : Big
Codec ID : A_AC3
Duration : 1h 37mn
Bit rate mode : Constant
Bit rate : 448 Kbps
Channel(s) : 6 channels
Channel positions : Front: L C R, Side: L R, LFE
Sampling rate : 48.0 KHz
Bit depth : 16 bits
Compression mode : Lossy
Stream size : 311 MiB (4%)
Title : Audio 3
Language : Chinese
Default : Yes
Forced : No


_________________
Проголосуй за трекер Открытый торрент трекер - RUS-MEDIA.ORG

Проголосуй Открытый торрент трекер - RUS-MEDIA.ORG



реклама партнёра


Вернуться к началу
 Профиль Отправить личное сообщение  
 
   Похожие торренты   Автор   Торрент   Размер 
В этой теме нет новых непрочитанных сообщений. Кулак дракона / Dragon Fist / Long quan [боевик, драма, 1979] BDRip, Mvo [ДТВ]

salma3

77 | 4

1.46 ГБ

В этой теме нет новых непрочитанных сообщений. Новый кулак ярости / New Fist Of Fury [Боевик, боевые искусства, драма, 1976] BDRip 1080p, Mvo+Dvo

salma3

58 | 5

7.28 ГБ

В этой теме нет новых непрочитанных сообщений. Великолепный мясник / Lin Shi Rong [Боевик, боевые искусства, комедия, 1979] BDRip 1080p, Avo

salma3

73 | 19

7.87 ГБ

В этой теме нет новых непрочитанных сообщений. Бесстрашная гиена / Xiao quan guai zhao [Боевик, боевые искусства, комедия, 1979] BD-Rip 1080p, Avo+Dvo

salma3

6 | 6

6.6 ГБ

В этой теме нет новых непрочитанных сообщений. Легенда / Fong Sai Yuk [Боевик, боевые искусства, 1993] BDRip 1080p, Mvo

salma3

42 | 7

6.07 ГБ

В этой теме нет новых непрочитанных сообщений. Два воина / Tai ji: Zhang San Feng [Боевик, боевые искусства, 1993] BDRip 1080p, Mvo

salma3

65 | 24

6.11 ГБ

В этой теме нет новых непрочитанных сообщений. Рука смерти / Shao Lin men [Боевик, боевые искусства, 1976] BDRip 1080p, Mvo

salma3

13 | 8

6.57 ГБ


Начать новую тему Ответить на тему  [ 1 сообщение ] 




Для Мосгорсуда, Роскомнадзора и рекламодателей:: mosgorsud-torrent[собачка]yandex.ru