Торрент файл
скачать торрент магнет ссылка Добавлен: 20 дек 2014, 11:53
Размер: 12.13 ГБ
Сидеров: 30
Личеров: 3
Автор

СообщениеДобавлено: 20 дек 2014, 11:53 

Не в сети
Зам. Админа
Аватара пользователя
Дата регистрации:
02 дек 2010, 12:39
Спасибо: 12625 / 214
Сообщения: 28010
Год выхода: 2014
Жанр: Триллер, Драма, Детектив
Режиссер: Дэвид Финчер
В ролях: Бен Аффлек, Розамунд Пайк, Кэрри Кун, Ким Диккенс, Нил Патрик Харрис, Тайлер Перри, Патрик Фьюджит, Бойд Холбрук, Мисси Пайл, Эмили Ратажковски

О фильме:
Все было готово для празднования пятилетнего юбилея супружеской жизни, когда вдруг необъяснимо пропал один из виновников торжества. Остались следы борьбы в доме, кровь, которую явно пытались стереть, — и цепочка «ключей» в игре под названием «охота за сокровищами»; красивая, умная и невероятно изобретательная жена ежегодно устраивала ее для своего обожаемого мужа. И похоже, что эти «ключи» — размещенные ею тут и там странные записки и не менее странные безделушки — дают единственный шанс пролить свет на судьбу исчезнувшей. Вот только не придется ли «охотнику» в процессе поиска раскрыть миру и пару-тройку собственных малосимпатичных тайн?

Кинопоиск   IMDB

Качество: BDRip [1080p]
Видео: AVC, 1920x800, 23.976 fps, 8999 Kbit/s
Аудио #1: DTS, 48 KHz, 6 ch, 768 Kbit/s | Русский
Аудио #2: AC3, 48 KHz, 6 ch, 448 Kbit/s | Украинский
Аудио #3: DTS, 48 KHz, 6 ch, 1509 Kbit/s | Оригинал
Субтитры: Русские, Украинские, Английские
Продолжительность: 02:29:15
Перевод: Дублированный [лицензия]

DownloadsIscheznuvshaja.2014.D.BDRip.1080p..mkv
  General
    Unique ID : 249314744757549690733384351557104695073 (0xBB9045F3C00BB2CAB6EA7CBF0FABF721)
    Complete name : DownloadsIscheznuvshaja.2014.D.BDRip.1080p..mkv
    Format : Matroska
    Format version : Version 4 / Version 2
    File size : 12.1 GiB
    Duration : 2h 29mn
    Overall bit rate : 11.7 Mbps
    Encoded date : UTC 2014-12-19 15:07:14
    Writing application : mkvmerge v7.3.0 ('Nouages') 64bit built on Oct 22 2014 18:53:34
    Writing library : libebml v1.3.0 + libmatroska v1.4.1
    DURATION : 02:24:10.059000000
    NUMBER_OF_FRAMES : 4884
    NUMBER_OF_BYTES : 15905523
    _STATISTICS_WRITING_APP : mkvmerge v7.3.0 ('Nouages') 64bit built on Oct 22 2014 18:53:34
    _STATISTICS_WRITING_DATE_UTC : 2014-12-19 15:07:14
    _STATISTICS_TAGS : BPS DURATION NUMBER_OF_FRAMES NUMBER_OF_BYTES
  Video #1
    ID : 1
    Format : AVC
    Format/Info : Advanced Video Codec
    Format profile : High@L4.1
    Format settings, CABAC : Yes
    Format settings, ReFrames : 4 frames
    Codec ID : V_MPEG4/ISO/AVC
    Duration : 2h 29mn
    Bit rate : 8 999 Kbps
    Width : 1 920 pixels
    Height : 800 pixels
    Display aspect ratio : 2.40:1
    Frame rate mode : Constant
    Frame rate : 23.976 fps
    Color space : YUV
    Chroma subsampling : 4:2:0
    Bit depth : 8 bits
    Scan type : Progressive
    Bits/(Pixel*Frame) : 0.244
    Stream size : 9.07 GiB (75%)
    Writing library : x264 core 142 r2431 ac76440
    Encoding settings : cabac=1 / ref=2 / deblock=1:-3:-3 / analyse=0x3:0x113 / me=dia / subme=2 / psy=1 / psy_rd=1.00:0.15 / mixed_ref=1 / me_range=16 / chroma_me=1 / trellis=2 / 8x8dct=1 / cqm=0 / deadzone=21,11 / fast_pskip=1 / chroma_qp_offset=-1 / threads=12 / lookahead_threads=6 / sliced_threads=0 / nr=0 / decimate=1 / interlaced=0 / bluray_compat=0 / constrained_intra=0 / bframes=2 / b_pyramid=2 / b_adapt=2 / b_bias=0 / direct=1 / weightb=1 / open_gop=0 / weightp=2 / keyint=240 / keyint_min=22 / scenecut=40 / intra_refresh=0 / rc_lookahead=40 / rc=abr / mbtree=1 / bitrate=8999 / ratetol=1.0 / qcomp=0.60 / qpmin=0 / qpmax=69 / qpstep=4 / vbv_maxrate=62500 / vbv_bufsize=78125 / nal_hrd=none / filler=0 / ip_ratio=1.40 / aq=1:1.00
    Language : English
    Default : Yes
    Forced : Yes
    Matrix coefficients : BT.709
  Audio #2
    ID : 2
    Format : DTS
    Format/Info : Digital Theater Systems
    Codec ID : A_DTS
    Duration : 2h 29mn
    Bit rate mode : Constant
    Bit rate : 755 Kbps
    Channel(s) : 6 channels
    Channel positions : Front: L C R, Side: L R, LFE
    Sampling rate : 48.0 KHz
    Bit depth : 24 bits
    Compression mode : Lossy
    Stream size : 804 MiB (6%)
    Language : Russian
    Default : Yes
    Forced : Yes
  Audio #3
    ID : 3
    Format : AC-3
    Format/Info : Audio Coding 3
    Mode extension : CM (complete main)
    Format settings, Endianness : Big
    Codec ID : A_AC3
    Duration : 2h 29mn
    Bit rate mode : Constant
    Bit rate : 448 Kbps
    Channel(s) : 6 channels
    Channel positions : Front: L C R, Side: L R, LFE
    Sampling rate : 48.0 KHz
    Bit depth : 16 bits
    Compression mode : Lossy
    Stream size : 478 MiB (4%)
    Language : Ukrainian
    Default : No
    Forced : No
  Audio #4
    ID : 4
    Format : DTS
    Format/Info : Digital Theater Systems
    Format profile : ES
    Codec ID : A_DTS
    Duration : 2h 29mn
    Bit rate mode : Constant
    Bit rate : 1 510 Kbps
    Channel(s) : 6 channels
    Channel positions : Front: L C R, Side: L R, LFE
    Sampling rate : 48.0 KHz
    Bit depth : 24 bits
    Compression mode : Lossy
    Stream size : 1.57 GiB (13%)
    Language : English
    Default : No
    Forced : No
  Text #5
    ID : 5
    Format : PGS
    Muxing mode : zlib
    Codec ID : S_HDMV/PGS
    Codec ID/Info : The same subtitle format used on BDs/HD-DVDs
    Language : Russian
    Default : No
    Forced : No
  Text #6
    ID : 6
    Format : PGS
    Muxing mode : zlib
    Codec ID : S_HDMV/PGS
    Codec ID/Info : The same subtitle format used on BDs/HD-DVDs
    Language : Russian
    Default : No
    Forced : No
  Text #7
    ID : 7
    Format : PGS
    Muxing mode : zlib
    Codec ID : S_HDMV/PGS
    Codec ID/Info : The same subtitle format used on BDs/HD-DVDs
    Language : Ukrainian
    Default : No
    Forced : No
  Text #8
    ID : 8
    Format : PGS
    Muxing mode : zlib
    Codec ID : S_HDMV/PGS
    Codec ID/Info : The same subtitle format used on BDs/HD-DVDs
    Language : English
    Default : No
    Forced : No
  Menu
    00:00:00.000 : en:00:00:00.000
    00:03:27.958 : en:00:03:27.958
    00:06:57.834 : en:00:06:57.834
    00:08:19.541 : en:00:08:19.541
    00:11:58.593 : en:00:11:58.593
    00:15:01.484 : en:00:15:01.484
    00:18:13.509 : en:00:18:13.509
    00:19:56.737 : en:00:19:56.737
    00:21:43.093 : en:00:21:43.093
    00:23:53.849 : en:00:23:53.849
    00:28:34.880 : en:00:28:34.880
    00:31:32.516 : en:00:31:32.516
    00:34:39.077 : en:00:34:39.077
    00:40:51.199 : en:00:40:51.199
    00:44:37.383 : en:00:44:37.383
    00:46:57.815 : en:00:46:57.815
    00:49:19.707 : en:00:49:19.707
    00:54:13.333 : en:00:54:13.333
    01:00:06.686 : en:01:00:06.686
    01:03:16.209 : en:01:03:16.209
    01:06:08.715 : en:01:06:08.715
    01:12:56.998 : en:01:12:56.998
    01:15:13.008 : en:01:15:13.008
    01:19:54.456 : en:01:19:54.456
    01:21:56.120 : en:01:21:56.120
    01:27:24.156 : en:01:27:24.156
    01:28:12.537 : en:01:28:12.537
    01:33:28.561 : en:01:33:28.561
    01:39:34.510 : en:01:39:34.510
    01:46:26.714 : en:01:46:26.714
    01:50:46.515 : en:01:50:46.515
    01:56:40.619 : en:01:56:40.619
    01:59:06.097 : en:01:59:06.097
    02:02:23.127 : en:02:02:23.127
    02:05:35.069 : en:02:05:35.069
    02:12:30.818 : en:02:12:30.818
    02:16:12.790 : en:02:16:12.790
    02:19:56.930 : en:02:19:56.930
    02:22:42.304 : en:02:22:42.304
    02:24:15.647 : en:02:24:15.647














реклама партнёра


Вернуться к началу
 Профиль  
 
   Похожие торренты   Автор   Торрент   Размер 
В этой теме нет новых непрочитанных сообщений. Исчезнувшая / Gone Girl [триллер, драма, детектив, 2014] BDRip 720p, Dub+Sub [лицензия]

Dracon

48 | 7

8.04 ГБ

В этой теме нет новых непрочитанных сообщений. Исчезнувшая / Gone Girl [триллер, драма, детектив, 2014] Blu-Ray [EUR], Dub+Sub [лицензия]

Dracon

6 | 5

44.3 ГБ

В этой теме нет новых непрочитанных сообщений. Исчезнувшая / Gone Girl [триллер, драма, детектив, 2014] HDRip, Dub [лицензия]

Dracon

73 | 2

2.05 ГБ

В этой теме нет новых непрочитанных сообщений. Исчезнувшая / Gone Girl [триллер, драма, детектив, 2014] HDRip, Dub [лицензия]

Dracon

187 | 6

1.46 ГБ

В этой теме нет новых непрочитанных сообщений. Исчезнувшая / Gone Girl [триллер, драма, детектив, 2014] WEB-DL 1080p [Алексей Матвеев aka Doctor Joker]

Dracon

79 | 4

4.86 ГБ

В этой теме нет новых непрочитанных сообщений. Исчезнувшая / Gone Girl [триллер, драма, детектив, 2014] WEB-DLRip, avo

Dracon

5 | 2

2.04 ГБ

В этой теме нет новых непрочитанных сообщений. Исчезнувшая / Gone Girl [триллер, драма, детектив, 2014] WEBRip-AVC, Dub+Sub

salma3

73 | 23

749.97 МБ


Начать новую тему Ответить на тему  [ 1 сообщение ] 




Для Мосгорсуда, Роскомнадзора и рекламодателей:: mosgorsud-torrent[собачка]yandex.ru