Торрент файл
скачать торрент магнет ссылка Добавлен: 10 дек 2014, 20:49
Размер: 6.67 ГБ
Сидеров: 6
Личеров: 2
Статус: (Dracon)
Автор

СообщениеДобавлено: 10 дек 2014, 20:49 

Не в сети
Зам. Админа
Аватара пользователя
Дата регистрации:
02 дек 2010, 12:39
Спасибо: 12625 / 214
Сообщения: 28010
Год выхода: 2014
Жанр: ужасы, фантастика
Режиссер: Дэвид Хьюлетт
В ролях: Теника Дэвис, Адриан Холмс, Керр Хьюит, Кайл Мак, Сидни Лидер, Джейдин Вонг, Адам Батчер, Джейсон Момоа

О фильме:
Группу осужденных за различные киберпреступления хакеров отправляют на заброшенную космическую станцию. Их задача: починить суперкомпьютер, управляющий этой станцией. Если им это удастся, их ждет свобода. Проблема в том, что этот компьютер оказывается хитрее, чем все хакеры вместе взятые...



Качество: BDRip [1080p]
Видео: MPEG4/AVC, 1920x1040, ~9413 Кбит/сек, 23.976 кадра/сек
Аудио 1: русский, АС3, 192 Кбит/сек, 2 канала, 48,0 КГц              
Аудио 2: английский, DTS, 1509 Кбит/сек, 6 каналов, 48,0 КГц
Продолжительность: 01:25:57
Перевод: Любительский (одноголосый) [Виктор Береговых] - по переводу [М.Васильева]
Субтитры: русские
E:с торрентовDebug.2014.Blu.Ray.1080p.mkv
  General
    Unique ID : 229709404730307089886591977929986234309 (0xACD06C0F40D6C58497482CAED46B57C5)
    Complete name : E:с торрентовDebug.2014.Blu.Ray.1080p.mkv
    Format : Matroska
    Format version : Version 4 / Version 2
    File size : 6.67 GiB
    Duration : 1h 25mn
    Overall bit rate : 11.1 Mbps
    Movie name : Release Group CINEMANIA
    Encoded date : UTC 2014-12-10 10:52:01
    Writing application : mkvmerge v7.3.0 ('Nouages') 64bit built on Oct 22 2014 18:53:34
    Writing library : libebml v1.3.0 + libmatroska v1.4.1
  Video #1
    ID : 1
    Format : AVC
    Format/Info : Advanced Video Codec
    Format profile : High@L4.1
    Format settings, CABAC : Yes
    Format settings, ReFrames : 4 frames
    Codec ID : V_MPEG4/ISO/AVC
    Duration : 1h 25mn
    Bit rate : 9 413 Kbps
    Width : 1 920 pixels
    Height : 1 040 pixels
    Display aspect ratio : 1.85:1
    Frame rate mode : Constant
    Frame rate : 23.976 fps
    Color space : YUV
    Chroma subsampling : 4:2:0
    Bit depth : 8 bits
    Scan type : Progressive
    Bits/(Pixel*Frame) : 0.197
    Stream size : 5.52 GiB (83%)
    Title : Release Group CINEMANIA
    Writing library : x264 core 142 r2479 dd79a61
    Encoding settings : cabac=1 / ref=4 / deblock=1:0:0 / analyse=0x3:0x133 / me=umh / subme=10 / psy=1 / psy_rd=1.00:0.00 / mixed_ref=1 / me_range=24 / chroma_me=1 / trellis=2 / 8x8dct=1 / cqm=0 / deadzone=21,11 / fast_pskip=1 / chroma_qp_offset=-2 / threads=12 / lookahead_threads=2 / sliced_threads=0 / nr=0 / decimate=1 / interlaced=0 / bluray_compat=0 / constrained_intra=0 / bframes=8 / b_pyramid=2 / b_adapt=2 / b_bias=0 / direct=3 / weightb=1 / open_gop=0 / weightp=2 / keyint=250 / keyint_min=23 / scenecut=40 / intra_refresh=0 / rc_lookahead=60 / rc=2pass / mbtree=1 / bitrate=9413 / ratetol=1.0 / qcomp=0.60 / qpmin=0 / qpmax=69 / qpstep=4 / cplxblur=20.0 / qblur=0.5 / ip_ratio=1.40 / aq=1:1.00
    Default : Yes
    Forced : No
  Audio #2
    ID : 2
    Format : AC-3
    Format/Info : Audio Coding 3
    Mode extension : CM (complete main)
    Format settings, Endianness : Big
    Codec ID : A_AC3
    Duration : 1h 25mn
    Bit rate mode : Constant
    Bit rate : 192 Kbps
    Channel(s) : 2 channels
    Channel positions : Front: L R
    Sampling rate : 48.0 KHz
    Bit depth : 16 bits
    Compression mode : Lossy
    Delay relative to video : -83ms
    Stream size : 118 MiB (2%)
    Title : В.Береговых
    Language : Russian
    Default : Yes
    Forced : Yes
  Audio #3
    ID : 3
    Format : DTS
    Format/Info : Digital Theater Systems
    Mode : 16
    Format settings, Endianness : Big
    Codec ID : A_DTS
    Duration : 1h 25mn
    Bit rate mode : Constant
    Bit rate : 1 509 Kbps
    Channel(s) : 6 channels
    Channel positions : Front: L C R, Side: L R, LFE
    Sampling rate : 48.0 KHz
    Bit depth : 16 bits
    Compression mode : Lossy
    Delay relative to video : -12ms
    Stream size : 928 MiB (14%)
    Language : English
    Default : No
    Forced : No
  Text #4
    ID : 4
    Format : UTF-8
    Codec ID : S_TEXT/UTF8
    Codec ID/Info : UTF-8 Plain Text
    Language : Russian
    Default : Yes
    Forced : Yes
  Menu
    00:00:00.000 : en:00:00:00.000
    00:13:49.162 : en:00:13:49.162
    00:29:51.707 : en:00:29:51.707
    00:40:29.886 : en:00:40:29.886
    00:54:53.415 : en:00:54:53.415
    01:20:29.950 : en:01:20:29.950














реклама партнёра


Вернуться к началу
 Профиль  
 
   Похожие торренты   Автор   Торрент   Размер 
В этой теме нет новых непрочитанных сообщений. Оставшийся / The Remaining (Кэйси Ла Скала) [Фантастика, Ужасы, Триллер, 2014] BDRip 1080p, Mvo+dvo+Sub

Dracon

5 | 6

9.89 ГБ

В этой теме нет новых непрочитанных сообщений. Весна / Spring (Джастин Бенсон, Аарон Мурхед) [ужасы, фантастика, мелодрама, 2014] BDRip 1080p, dvo

Dracon

147 | 18

9.59 ГБ

В этой теме нет новых непрочитанных сообщений. Сингенор / Syngenor [ужасы, фантастика, 1990] BDRip 1080p, Dvo

salma3

23 | 2

9.85 ГБ

В этой теме нет новых непрочитанных сообщений. Особь 3 / Species III [ужасы, фантастика, 2004] BDRip 1080p, Dvo+Avo+Sub

salma3

59 | 77

9.19 ГБ

В этой теме нет новых непрочитанных сообщений. Капля / The Blob [ужасы, фантастика, 1988] BDRip 1080p, Mvo+Avo+Sub

salma3

9 | 2

13.34 ГБ

В этой теме нет новых непрочитанных сообщений. Джулия / Julia [ужасы, триллер, 2014] BDRip 1080p, Dvo

salma3

65 | 23

6.17 ГБ

В этой теме нет новых непрочитанных сообщений. Паразит: Часть 1 / Kiseijû: Part 1 (Такаси Ямадзаки) [Фантастика, ужасы, 2014] WEB-DL 1080p, dvo

Dracon

433 | 16

2.92 ГБ


Начать новую тему Ответить на тему  [ 1 сообщение ] 




Для Мосгорсуда, Роскомнадзора и рекламодателей:: mosgorsud-torrent[собачка]yandex.ru