Торрент файл
скачать торрент магнет ссылка Добавлен: 10 дек 2014, 20:33
Размер: 4.28 ГБ
Сидеров: 2
Личеров: 3
Статус: (Dracon)
Автор

СообщениеДобавлено: 10 дек 2014, 20:33 

Не в сети
Зам. Админа
Аватара пользователя
Дата регистрации:
02 дек 2010, 12:39
Спасибо: 12620 / 214
Сообщения: 28049
Год выхода: 2014
Жанр: ужасы, фантастика
Режиссер: Дэвид Хьюлетт
В ролях: Теника Дэвис, Адриан Холмс, Керр Хьюит, Кайл Мак, Сидни Лидер, Джейдин Вонг, Адам Батчер, Джейсон Момоа

О фильме:
Группу осужденных за различные киберпреступления хакеров отправляют на заброшенную космическую станцию. Их задача: починить суперкомпьютер, управляющий этой станцией. Если им это удастся, их ждет свобода. Проблема в том, что этот компьютер оказывается хитрее, чем все хакеры вместе взятые...



Качество: BDRip [720p]
Видео: MPEG4/AVC, 1280x690, ~6155 Кбит/сек, 23.976 кадра/сек
Аудио 1: русский, АС3, 192 Кбит/сек, 2 канала, 48,0 КГц            
Аудио 2: английский, АС3, 640 Кбит/сек, 5 каналов, 48,0 КГц
Продолжительность: 01:25:57
Перевод: Любительский (одноголосый) [Виктор Береговых] - по переводу [М.Васильева]
Субтитры: русские
E:с торрентовDebug.2014.Blu.Ray.720p.mkv
  General
    Unique ID : 209319429222719125158418371842526157768 (0x9D7974A6ABF2ED70B639BAC404A41BC8)
    Complete name : E:с торрентовDebug.2014.Blu.Ray.720p.mkv
    Format : Matroska
    Format version : Version 4 / Version 2
    File size : 4.28 GiB
    Duration : 1h 25mn
    Overall bit rate : 7 129 Kbps
    Movie name : Release Group CINEMANIA
    Encoded date : UTC 2014-12-10 09:52:50
    Writing application : mkvmerge v7.3.0 ('Nouages') 64bit built on Oct 22 2014 18:53:34
    Writing library : libebml v1.3.0 + libmatroska v1.4.1
  Video #1
    ID : 1
    Format : AVC
    Format/Info : Advanced Video Codec
    Format profile : High@L4.1
    Format settings, CABAC : Yes
    Format settings, ReFrames : 9 frames
    Codec ID : V_MPEG4/ISO/AVC
    Duration : 1h 25mn
    Bit rate : 6 155 Kbps
    Width : 1 280 pixels
    Height : 690 pixels
    Display aspect ratio : 1.85:1
    Frame rate mode : Constant
    Frame rate : 23.976 fps
    Color space : YUV
    Chroma subsampling : 4:2:0
    Bit depth : 8 bits
    Scan type : Progressive
    Bits/(Pixel*Frame) : 0.291
    Stream size : 3.70 GiB (86%)
    Title : Release Group CINEMANIA
    Writing library : x264 core 142 r2479kMod dd79a61
    Encoding settings : cabac=1 / ref=9 / deblock=1:-1:-1 / analyse=0x3:0x133 / me=tesa / subme=10 / psy=1 / fade_compensate=0.00 / psy_rd=1.10:0.05 / mixed_ref=1 / me_range=24 / chroma_me=1 / trellis=2 / 8x8dct=1 / cqm=0 / deadzone=21,11 / fast_pskip=0 / chroma_qp_offset=-3 / threads=6 / lookahead_threads=1 / sliced_threads=0 / nr=0 / decimate=1 / interlaced=0 / bluray_compat=0 / constrained_intra=0 / fgo=0 / bframes=12 / b_pyramid=2 / b_adapt=2 / b_bias=0 / direct=3 / weightb=1 / open_gop=0 / weightp=2 / keyint=250 / keyint_min=23 / scenecut=40 / intra_refresh=0 / rc_lookahead=60 / rc=crf / mbtree=0 / crf=16.5000 / qcomp=0.75 / qpmin=0 / qpmax=69 / qpstep=4 / vbv_maxrate=62500 / vbv_bufsize=78125 / crf_max=0.0 / nal_hrd=none / filler=0 / ip_ratio=1.30 / pb_ratio=1.20 / aq=3:0.80
    Language : English
    Default : Yes
    Forced : No
    Matrix coefficients : BT.709
  Audio #2
    ID : 2
    Format : AC-3
    Format/Info : Audio Coding 3
    Mode extension : CM (complete main)
    Format settings, Endianness : Big
    Codec ID : A_AC3
    Duration : 1h 25mn
    Bit rate mode : Constant
    Bit rate : 192 Kbps
    Channel(s) : 2 channels
    Channel positions : Front: L R
    Sampling rate : 48.0 KHz
    Bit depth : 16 bits
    Compression mode : Lossy
    Stream size : 118 MiB (3%)
    Title : В.Береговых
    Language : Russian
    Default : Yes
    Forced : Yes
  Audio #3
    ID : 3
    Format : AC-3
    Format/Info : Audio Coding 3
    Mode extension : CM (complete main)
    Format settings, Endianness : Big
    Codec ID : A_AC3
    Duration : 1h 25mn
    Bit rate mode : Constant
    Bit rate : 640 Kbps
    Channel(s) : 5 channels
    Channel positions : Front: L C R, Side: L R
    Sampling rate : 48.0 KHz
    Bit depth : 16 bits
    Compression mode : Lossy
    Stream size : 393 MiB (9%)
    Language : English
    Default : No
    Forced : No
  Text #4
    ID : 4
    Format : UTF-8
    Codec ID : S_TEXT/UTF8
    Codec ID/Info : UTF-8 Plain Text
    Language : Russian
    Default : Yes
    Forced : Yes
  Menu
    00:00:00.000 : en:00:00:00.000
    00:13:49.162 : en:00:13:49.162
    00:29:51.707 : en:00:29:51.707
    00:40:29.886 : en:00:40:29.886
    00:54:53.415 : en:00:54:53.415
    01:20:29.950 : en:01:20:29.950














реклама партнёра


Вернуться к началу
 Профиль  
 
   Похожие торренты   Автор   Торрент   Размер 
В этой теме нет новых непрочитанных сообщений. Отладка / Debug [ужасы, фантастика, 2014] BDRip 720p, Avo

salma3

300 | 19

4.26 ГБ

В этой теме нет новых непрочитанных сообщений. Отладка / Debug [ужасы, фантастика, 2014] BDRip 1080p, avo+sub

Dracon

6 | 2

6.67 ГБ

В этой теме нет новых непрочитанных сообщений. Отладка / Debug [ужасы, фантастика, 2014] BDRip 1080p, Avo

salma3

222 | 18

6.15 ГБ

В этой теме нет новых непрочитанных сообщений. Отладка / Debug [ужасы, фантастика, 2014] HDRip, Avo

salma3

1546 | 69

1.37 ГБ

В этой теме нет новых непрочитанных сообщений. Джинн / Jinn [ужасы, триллер, фантастика, 2014] BDRip 720p, Avo+Sub

salma3

254 | 12

2.94 ГБ

В этой теме нет новых непрочитанных сообщений. Ближе к Богу / Closer to God [ужасы, фантастика, триллер, 2014] BDRip 720p, Mvo

salma3

150 | 52

3.1 ГБ

В этой теме нет новых непрочитанных сообщений. Оставшийся / The Remaining (Кэйси Ла Скала) [Фантастика, Ужасы, Триллер, 2014] BDRip 720p, dvo

Dracon

8 | 7

5.3 ГБ


Начать новую тему Ответить на тему  [ 1 сообщение ] 




Для Мосгорсуда, Роскомнадзора и рекламодателей:: mosgorsud-torrent[собачка]yandex.ru