Торрент файл
скачать торрент магнет ссылка Добавлен: 10 дек 2014, 16:37
Размер: 4.26 ГБ
Сидеров: 300
Личеров: 19
Статус: (salma3)
Автор

СообщениеДобавлено: 10 дек 2014, 16:37 

Не в сети
Супермодератор
Аватара пользователя
Дата регистрации:
15 фев 2012, 16:44
Возраст: 28
Спасибо: 6644 / 2146
Сообщения: 45843
Год выхода: 2014
Жанр: ужасы, фантастика
Режиссер: Дэвид Хьюлетт
В ролях: Теника Дэвис, Адриан Холмс, Керр Хьюит, Кайл Мак, Сидни Лидер, Джейдин Вонг, Адам Батчер, Джейсон Момоа

О фильме:
Команда хакеров, находится на испытательном сроке и отправлена на заброшенный космический корабль, где будет вынуждена зарабатывать себе свободу.



Выпущено: Канада
Продолжительность: 01:25:57
Озвучивание: Любительское (одноголосое) [Виктор Береговых], перевод [Михаил Васильев]

Файл
Формат: MKV
Качество: BDRip 720p
Видео: 5400 kb/s, 1280x688
Аудио: Russian: AC3, 192 kb/s (2 ch) / English: DTS, 1510 kb/s (6 ch)

Format : Matroska
Format version : Version 4 / Version 2
File size : 4.26 GiB
Duration : 1h 25mn
Overall bit rate : 7 097 Kbps
Encoded date : UTC 2014-12-10 11:45:09
Writing application : mkvmerge v6.1.0 ('Old Devil') built on Mar 4 2013 09:10:42
Writing library : libebml v1.3.0 + libmatroska v1.4.0

Video
ID : 1
Format : AVC
Format/Info : Advanced Video Codec
Format profile : High@L4.0
Format settings, CABAC : Yes
Format settings, ReFrames : 8 frames
Codec ID : V_MPEG4/ISO/AVC
Duration : 1h 25mn
Bit rate : 5 400 Kbps
Width : 1 280 pixels
Height : 688 pixels
Display aspect ratio : 1.85:1
Frame rate mode : Variable / Variable
Frame rate : 23.976 fps
Color space : YUV
Chroma subsampling : 4:2:0
Bit depth : 8 bits
Scan type : Progressive
Bits/(Pixel*Frame) : 0.256
Stream size : 3.15 GiB (74%)
Writing library : x264 core 142 r2389 956c8d8
Encoding settings : cabac=1 / ref=9 / deblock=1:-3:-3 / analyse=0x3:0x113 / me=umh / subme=10 / psy=1 / psy_rd=1,00:0,00 / mixed_ref=1 / me_range=48 / chroma_me=1 / trellis=2 / 8x8dct=1 / cqm=0 / deadzone=21,11 / fast_pskip=1 / chroma_qp_offset=-2 / threads=6 / lookahead_threads=1 / sliced_threads=0 / nr=0 / decimate=1 / interlaced=0 / bluray_compat=0 / constrained_intra=0 / bframes=6 / b_pyramid=1 / b_adapt=2 / b_bias=0 / direct=2 / weightb=1 / open_gop=0 / weightp=2 / keyint=240 / keyint_min=24 / scenecut=40 / intra_refresh=0 / rc_lookahead=40 / rc=2pass / mbtree=1 / bitrate=5400 / ratetol=1,0 / qcomp=0,60 / qpmin=0 / qpmax=69 / qpstep=4 / cplxblur=20,0 / qblur=0,5 / ip_ratio=1,40 / aq=1:1,00
Language : English
Default : Yes
Forced : No
Color primaries : BT.709-5, BT.1361, IEC 61966-2-4, SMPTE RP177
Transfer characteristics : BT.709-5, BT.1361
Matrix coefficients : BT.709-5, BT.1361, IEC 61966-2-4 709, SMPTE RP177

Audio #1
ID : 2
Format : AC-3
Format/Info : Audio Coding 3
Mode extension : CM (complete main)
Format settings, Endianness : Big
Codec ID : A_AC3
Duration : 1h 25mn
Bit rate mode : Constant
Bit rate : 192 Kbps
Channel(s) : 2 channels
Channel positions : Front: L R
Sampling rate : 48.0 KHz
Bit depth : 16 bits
Compression mode : Lossy
Delay relative to video : -100ms
Stream size : 118 MiB (3%)
Language : Russian
Default : Yes
Forced : No

Audio #2
ID : 3
Format : DTS
Format/Info : Digital Theater Systems
Codec ID : A_DTS
Duration : 1h 25mn
Bit rate mode : Constant
Bit rate : 1 510 Kbps
Channel(s) : 6 channels
Channel positions : Front: L C R, Side: L R, LFE
Sampling rate : 48.0 KHz
Bit depth : 16 bits
Compression mode : Lossy
Stream size : 928 MiB (21%)
Language : English
Default : No
Forced : No



_________________
Проголосуй за трекер Открытый торрент трекер - RUS-MEDIA.ORG

Проголосуй Открытый торрент трекер - RUS-MEDIA.ORG



реклама партнёра


Вернуться к началу
 Профиль Отправить личное сообщение  
 
   Похожие торренты   Автор   Торрент   Размер 
В этой теме нет новых непрочитанных сообщений. Ближе к Богу / Closer to God [ужасы, фантастика, триллер, 2014] BDRip 720p, Mvo

salma3

150 | 52

3.1 ГБ

В этой теме нет новых непрочитанных сообщений. Оставшийся / The Remaining (Кэйси Ла Скала) [Фантастика, Ужасы, Триллер, 2014] BDRip 720p, dvo

Dracon

8 | 7

5.3 ГБ

В этой теме нет новых непрочитанных сообщений. Оставшийся / The Remaining (Кэйси Ла Скала) [Фантастика, Ужасы, Триллер, 2014] BDRip 720p, Mvo [Лицензия]

Dracon

9 | 3

5.66 ГБ

В этой теме нет новых непрочитанных сообщений. Шар / The Device [ужасы, фантастика, триллер, 2014] WEB-DLRip 720p, avo+sub

Dracon

3 | 2

3.09 ГБ

В этой теме нет новых непрочитанных сообщений. Синий демон / Ao oni [Ужасы, 2014] BDRip 720p, mvo

Dracon

1 | 2

3.76 ГБ

В этой теме нет новых непрочитанных сообщений. Ссссссс / Sssssss [ужасы, фантастика, 1973] BDRip 720p, Avo

salma3

29 | 10

6.67 ГБ

В этой теме нет новых непрочитанных сообщений. Капля / The Blob [ужасы, фантастика, 1988] BDRip 720p, Mvo+Avo+Sub

salma3

57 | 8

4.31 ГБ


Начать новую тему Ответить на тему  [ 1 сообщение ] 




Для Мосгорсуда, Роскомнадзора и рекламодателей:: mosgorsud-torrent[собачка]yandex.ru