Торрент файл
скачать торрент магнет ссылка Добавлен: 07 дек 2014, 22:41
Размер: 4.31 ГБ
Сидеров: 36
Личеров: 5
Автор

СообщениеДобавлено: 07 дек 2014, 22:41 

Не в сети
Супермодератор
Аватара пользователя
Дата регистрации:
15 фев 2012, 16:44
Возраст: 28
Спасибо: 6644 / 2146
Сообщения: 45841
Год выхода: 1995
Жанр: ужасы, фантастика, боевик, триллер, криминал
Режиссер: Брэдфорд Мэй
В ролях: Ларри Дрэйк, Арнольд Вослу, Ким Делани, Рене О’Коннор, Лоуренс Дэйн, Джесси Коллинз, Дэвид Ферри, Род Уилсон, Джек Лангедийк, Стэн Ейрик

Описание: С помощью своего друга-ученого, обезображенный доктор Уэстлэйк нашел способ, благодаря которому он мог бы вернуть свой первозданный облик. Но именно в этот момент безжалостный рок заставляет Пэйтона снова пережить трагедию, которая постигла его в первой части картины. Более того, оказывается, что покойный садист Дюран жив, здоров, и снова полон преступных планов. Доктор Уэстлэйк решает окончательно и бесповоротно разделаться с жутким Дюраном и его страшной компанией. Начинается кровавая схватка со злом, в которой Человек Тьмы пойдет до самого конца.



Страна: США
Продолжительность: 01:32:38
Перевод #1: Профессиональный (Многоголосый, Закадровый)
Перевод #2: Авторский (Одноголосый, Закадровый) (Андрей Гаврилов) (со вставкой Многоголосого)
Перевод #3: Французский
Перевод #4: Испанский
Перевод #5: Английский (Оригинал)

Файл
Формат: MKV
Качество: BDRip 720p (Источник: Darkman.Trilogy.1990-1996.720p.BluRay.x264-PublicHD)
Видео: 1280x720 (16:9), 23,976 fps, 5247 kbps, 0.237 bit/pixel
Аудио #1: AC-3, 2 ch, 192 kbps (Многоголосый)
Аудио #2: AC-3, 2 ch, 192 kbps (Одноголосый Андрей Гаврилов)
Аудио #3: AC-3, 2 ch, 192 kbps (Французский)
Аудио #4: AC-3, 2 ch, 192 kbps (Испанский)
Аудио #5: AC-3, 2 ch, 640 kbps (Английский Оригинал)
Субтитры: нет

01 - видео не пережималось такое как в исходнике
02 - Английский 2.0 (DTS) пожат в (AC-3)
03 - перетяжка и синхронизация русских дорожек с BDRip 720p iDRaser2013
04 - в дорожке Андрея Гаврилова имеется вставка из Многоголосого

General
Unique ID : 240981685494226480272095633904036255648 (0xB54B6268F87752D9A5DBABD9C6D097A0)
Complete name : Darkman.2.1994.720p.P.A.mkv
Format : Matroska
Format version : Version 2
File size : 4.31 GiB
Duration : 1h 32mn
Overall bit rate : 6 655 Kbps
Movie name : Человек Тьмы II: Возвращение Дюрана / Darkman II: The Return of Durant (1994) (720p)
Encoded date : UTC 2014-12-07 17:36:20
Writing application : mkvmerge v5.6.0 ('Kenya Kane') built on May 27 2012 16:44:04
Writing library : libebml v1.2.3 + libmatroska v1.3.0

Video
ID : 1
Format : AVC
Format/Info : Advanced Video Codec
Format profile : High@L3.1
Format settings, CABAC : Yes
Format settings, ReFrames : 5 frames
Codec ID : V_MPEG4/ISO/AVC
Duration : 1h 32mn
Bit rate : 5 247 Kbps
Width : 1 280 pixels
Height : 720 pixels
Display aspect ratio : 16:9
Frame rate mode : Constant
Frame rate : 23.976 fps
Color space : YUV
Chroma subsampling : 4:2:0
Bit depth : 8 bits
Scan type : Progressive
Bits/(Pixel*Frame) : 0.237
Stream size : 3.31 GiB (77%)
Title : Человек Тьмы II: Возвращение Дюрана / Darkman II: The Return of Durant (1994) (720p)
Writing library : x264 core 125 r2208 d9d2288
Encoding settings : cabac=1 / ref=5 / deblock=1:0:0 / analyse=0x3:0x133 / me=umh / subme=7 / psy=1 / psy_rd=1.00:0.00 / mixed_ref=1 / me_range=16 / chroma_me=1 / trellis=1 / 8x8dct=1 / cqm=0 / deadzone=21,11 / fast_pskip=0 / chroma_qp_offset=-2 / threads=6 / lookahead_threads=1 / sliced_threads=0 / nr=0 / decimate=1 / interlaced=0 / bluray_compat=0 / constrained_intra=0 / bframes=3 / b_pyramid=2 / b_adapt=2 / b_bias=0 / direct=3 / weightb=1 / open_gop=0 / weightp=2 / keyint=250 / keyint_min=23 / scenecut=40 / intra_refresh=0 / rc_lookahead=50 / rc=2pass / mbtree=1 / bitrate=5247 / ratetol=1.0 / qcomp=0.60 / qpmin=0 / qpmax=69 / qpstep=4 / cplxblur=20.0 / qblur=0.5 / ip_ratio=1.40 / aq=1:1.00
Language : English
Default : Yes
Forced : No

Audio #1
ID : 2
Format : AC-3
Format/Info : Audio Coding 3
Mode extension : CM (complete main)
Format settings, Endianness : Big
Codec ID : A_AC3
Duration : 1h 32mn
Bit rate mode : Constant
Bit rate : 192 Kbps
Channel(s) : 2 channels
Channel positions : Front: L R
Sampling rate : 48.0 KHz
Bit depth : 16 bits
Compression mode : Lossy
Stream size : 127 MiB (3%)
Title : Многоголосый 2.0
Language : Russian
Default : Yes
Forced : No

Audio #2
ID : 3
Format : AC-3
Format/Info : Audio Coding 3
Mode extension : CM (complete main)
Format settings, Endianness : Big
Codec ID : A_AC3
Duration : 1h 32mn
Bit rate mode : Constant
Bit rate : 192 Kbps
Channel(s) : 2 channels
Channel positions : Front: L R
Sampling rate : 48.0 KHz
Bit depth : 16 bits
Compression mode : Lossy
Stream size : 127 MiB (3%)
Title : Андрей Гаврилов 2.0 (со вставкой Многоголосого)
Language : Russian
Default : No
Forced : No

Audio #3
ID : 4
Format : AC-3
Format/Info : Audio Coding 3
Mode extension : CM (complete main)
Format settings, Endianness : Big
Codec ID : A_AC3
Duration : 1h 32mn
Bit rate mode : Constant
Bit rate : 192 Kbps
Channel(s) : 2 channels
Channel positions : Front: L R
Sampling rate : 48.0 KHz
Bit depth : 16 bits
Compression mode : Lossy
Stream size : 127 MiB (3%)
Title : Французский 2.0
Language : French
Default : No
Forced : No

Audio #4
ID : 5
Format : AC-3
Format/Info : Audio Coding 3
Mode extension : CM (complete main)
Format settings, Endianness : Big
Codec ID : A_AC3
Duration : 1h 32mn
Bit rate mode : Constant
Bit rate : 192 Kbps
Channel(s) : 2 channels
Channel positions : Front: L R
Sampling rate : 48.0 KHz
Bit depth : 16 bits
Compression mode : Lossy
Stream size : 127 MiB (3%)
Title : Испанский 2.0
Language : Spanish
Default : No
Forced : No

Audio #5
ID : 6
Format : AC-3
Format/Info : Audio Coding 3
Mode extension : CM (complete main)
Format settings, Endianness : Big
Codec ID : A_AC3
Duration : 1h 32mn
Bit rate mode : Constant
Bit rate : 640 Kbps
Channel(s) : 2 channels
Channel positions : Front: L R
Sampling rate : 48.0 KHz
Bit depth : 16 bits
Compression mode : Lossy
Stream size : 424 MiB (10%)
Title : Английский 2.0 (Оригинал)
Language : English
Default : No
Forced : No


_________________
Проголосуй за трекер Открытый торрент трекер - RUS-MEDIA.ORG

Проголосуй Открытый торрент трекер - RUS-MEDIA.ORG



реклама партнёра


Вернуться к началу
 Профиль Отправить личное сообщение  
 
   Похожие торренты   Автор   Торрент   Размер 
В этой теме нет новых непрочитанных сообщений. Возвращение болотной твари / The Return of Swamp Thing [ужасы, фантастика, боевик, 1989] BDRip-AVC, Avo

salma3

32 | 11

745.74 МБ

В этой теме нет новых непрочитанных сообщений. Человек-паук: Возвращение домой / Spider-Man: Homecoming [фантастика, боевик, приключения, 2017] BDRip 720p, Dub [Лицензия]

salma3

47 | 25

6.96 ГБ

В этой теме нет новых непрочитанных сообщений. Месть / Возвращение / The Return [ужасы, триллер, детектив, 2010] BDRip-AVC, Dub

salma3

215 | 33

745.6 МБ

В этой теме нет новых непрочитанных сообщений. Возвращение помидоров-убийц / Return of the Killer Tomatoes [Комедия, фантастика, ужасы, 1988] BDRip-AVC, Dvo

salma3

1 | 2

2.03 ГБ

В этой теме нет новых непрочитанных сообщений. Возвращение помидоров-убийц / Return of the Killer Tomatoes [ужасы, фантастика, комедия, 1988] BDRip, Dvo

salma3

6 | 1

1.45 ГБ

В этой теме нет новых непрочитанных сообщений. Особь / Species [ужасы, фантастика, боевик, триллер, 1995] BDRip 720p, Dub, Dvo+Avo+Sub

salma3

18 | 5

5.94 ГБ

В этой теме нет новых непрочитанных сообщений. Возвращение болотной твари / The Return of Swamp Thing [ужасы, фантастика, боевик, 1989] BDRemux 1080р, Avo+Sub

salma3

8 | 6

13.62 ГБ


Начать новую тему Ответить на тему  [ 1 сообщение ] 




Для Мосгорсуда, Роскомнадзора и рекламодателей:: mosgorsud-torrent[собачка]yandex.ru