Торрент файл
скачать торрент магнет ссылка Добавлен: 07 дек 2014, 14:24
Размер: 7.97 ГБ
Сидеров: 89
Личеров: 14
Автор

СообщениеДобавлено: 07 дек 2014, 14:24 

Не в сети
Супермодератор
Аватара пользователя
Дата регистрации:
15 фев 2012, 16:44
Возраст: 28
Спасибо: 6644 / 2146
Сообщения: 45958
Год выхода: 2006
Жанр: Комедия, приключения, фэнтези, семейный, рождество
Режиссер: Джон Пасквин, Майкл Лембек
В ролях: Тим Аллен, Венди Крюсон, Джадж Райнхолд, Эрик Ллойд, Дэвид Крамхолц, Элизабет Митчелл, Спенсер Бреслин, Мартин Шорт

О фильме:
Рискуя выдать тайну Северного полюса, Скотт Кэлвин (Тим Аллен), а по совместительству Санта-Клаус, приглашает своих родственников (Энн - Маргрет и Алан Аркин) отпраздновать Рождество, а заодно и предстоящее появление на свет сына Клауса, которого вот - вот должна родить его жена Кэрол (Элизабет Митчелл). В итоге Скотт вместе с его большим семейством и главным эльфом Кертисом (Спенсер Бреслин) вынужден противостоять коварному злодею Джеку Фросту (Мартин Шорт), который намеревается отобрать Рождество у Санта - Клауса и захватить власть на Северном полюсе…


Страна: США
Студия: Walt Disney Pictures
Продолжительность: 01:31:56
Перевод: Профессиональный многоголосый

Файл
Кодек: h.264
Качество: BDRip 1080p
Видео: MPEG-4, 1920x1040, 11.3 Мбит/с, 23.976 кадр/с
Звук:
Аудио #1: Русский ( AC3, 2ch, 448 Кбит/с, 48.0 KHz) Профессиональный многоголосый
Аудио #6: Английский ( AC3, 6ch, 640 Кбит/с, 48.0 KHz) Оригинал
Complete name : The.Santa.Clause.3.2006.BDRip.1080p.mkv
Format : Matroska
Format version : Version 4 / Version 2
File size : 7.97 GiB
Duration : 1h 31mn
Overall bit rate : 12.4 Mbps
Encoded date : UTC 2014-12-07 08:35:26
Writing application : mkvmerge v6.9.1 ('Blue Panther') 64bit built on Apr 18 2014 18:23:38
Writing library : libebml v1.3.0 + libmatroska v1.4.1

Video
ID : 1
Format : AVC
Format/Info : Advanced Video Codec
Format profile : High@L4.1
Format settings, CABAC : Yes
Format settings, ReFrames : 4 frames
Codec ID : V_MPEG4/ISO/AVC
Duration : 1h 31mn
Bit rate : 11.3 Mbps
Width : 1 920 pixels
Height : 1 040 pixels
Display aspect ratio : 1.85:1
Frame rate mode : Constant
Frame rate : 23.976 fps
Color space : YUV
Chroma subsampling : 4:2:0
Bit depth : 8 bits
Scan type : Progressive
Bits/(Pixel*Frame) : 0.237
Stream size : 7.11 GiB (89%)
Title : Video
Writing library : x264 core 125 r2200 999b753
Encoding settings : cabac=1 / ref=4 / deblock=1:-1:-1 / analyse=0x3:0x113 / me=umh / subme=8 / psy=1 / psy_rd=1.00:0.15 / mixed_ref=1 / me_range=16 / chroma_me=1 / trellis=1 / 8x8dct=1 / cqm=0 / deadzone=21,11 / fast_pskip=1 / chroma_qp_offset=-3 / threads=6 / lookahead_threads=1 / sliced_threads=0 / nr=0 / decimate=1 / interlaced=0 / bluray_compat=0 / constrained_intra=0 / bframes=3 / b_pyramid=2 / b_adapt=2 / b_bias=0 / direct=3 / weightb=1 / open_gop=0 / weightp=2 / keyint=250 / keyint_min=23 / scenecut=40 / intra_refresh=0 / rc_lookahead=50 / rc=2pass / mbtree=1 / bitrate=11325 / ratetol=1.0 / qcomp=0.60 / qpmin=0 / qpmax=69 / qpstep=4 / cplxblur=20.0 / qblur=0.5 / ip_ratio=1.40 / aq=1:1.00
Language : English
Default : Yes
Forced : No

Audio #1
ID : 2
Format : AC-3
Format/Info : Audio Coding 3
Mode extension : CM (complete main)
Format settings, Endianness : Big
Codec ID : A_AC3
Duration : 1h 31mn
Bit rate mode : Constant
Bit rate : 448 Kbps
Channel(s) : 2 channels
Channel positions : Front: L R
Sampling rate : 48.0 KHz
Bit depth : 16 bits
Compression mode : Lossy
Stream size : 295 MiB (4%)
Title : Audio 1
Language : Russian
Default : Yes
Forced : No

Audio #2
ID : 3
Format : AC-3
Format/Info : Audio Coding 3
Mode extension : CM (complete main)
Format settings, Endianness : Big
Codec ID : A_AC3
Duration : 1h 31mn
Bit rate mode : Constant
Bit rate : 640 Kbps
Channel(s) : 6 channels
Channel positions : Front: L C R, Side: L R, LFE
Sampling rate : 48.0 KHz
Bit depth : 16 bits
Compression mode : Lossy
Stream size : 421 MiB (5%)
Title : Audio 2
Language : English
Default : No
Forced : No



_________________
Проголосуй за трекер Открытый торрент трекер - RUS-MEDIA.ORG

Проголосуй Открытый торрент трекер - RUS-MEDIA.ORG



реклама партнёра


Вернуться к началу
 Профиль Отправить личное сообщение  
 
   Похожие торренты   Автор   Торрент   Размер 
В этой теме нет новых непрочитанных сообщений. Санта Клаус 3 / Санта Клаус 3: Хозяин полюса / The Santa Clause 3: The Escape Clause [фэнтези, комедия, приключения, семейный, 2006] BDRip, Mvo

salma3

89 | 14

1.45 ГБ

В этой теме нет новых непрочитанных сообщений. Санта Мяус / Santa Claws [комедия, семейный, 2014] BDRip 1080p, Mvo

salma3

104 | 38

6.79 ГБ

В этой теме нет новых непрочитанных сообщений. Плохой Санта 2 / Bad Santa 2 (драма, комедия, криминал, 2016) BDRip 1080p | Расширенная версия | iTunes, А

marya111

620 | 143

8.16 ГБ

В этой теме нет новых непрочитанных сообщений. Кто в доме хозяин / Хозяин дома / Man of the House [Комедия, семейный, 1995] WEBRip 1080p, Mvo

salma3

64 | 27

4 ГБ

В этой теме нет новых непрочитанных сообщений. Плохой Санта 2 / Bad Santa 2 [драма, комедия, криминал, 2016] WEB-DL 1080p, Dub [iTunes]

salma3

5730 | 1171

3.44 ГБ

В этой теме нет новых непрочитанных сообщений. Я видел, как мама целовала Санта Клауса / I Saw Mommy Kissing Santa Claus [семейный, комедия, 2002] DVDRip-AVC, Mvo

salma3

37 | 11

1.36 ГБ

В этой теме нет новых непрочитанных сообщений. Плохой Санта 2 / Bad Santa 2 (драма, комедия, криминал, 2016) BDRip 720p от New-Team | iTunes, A

marya111

265 | 89

4.24 ГБ


Начать новую тему Ответить на тему  [ 1 сообщение ] 




Для Мосгорсуда, Роскомнадзора и рекламодателей:: mosgorsud-torrent[собачка]yandex.ru