Торрент файл
скачать торрент магнет ссылка Добавлен: 04 дек 2014, 22:37
Размер: 15.56 ГБ
Сидеров: 26
Личеров: 13
Автор

СообщениеДобавлено: 04 дек 2014, 22:37 

Не в сети
Супермодератор
Аватара пользователя
Дата регистрации:
15 фев 2012, 16:44
Возраст: 28
Спасибо: 6644 / 2146
Сообщения: 45843
Год выхода: 2006
Жанр: Боевик, комедия, приключения, криминал, вестерн
Режиссёр: Хоаким Роннинг, Эспен Сандберг

В ролях: Пенелопа Крус, Сальма Хайек, Стив Зан, Исмаэль 'Ист' Карло, Джусто Мартинез, Ана Офелиа Мургуйя, Эдгар Вивар, Джозеф Д. Рейтман, Денис Арндт, Одра Блейзер, Карл Браун, Гэри Сервантес, Умберто Элисондо, Дая Фернандес, Эрнесто Гомес Крус, Хуан Мануэль Робледо Риос, Серджо Гонзалез, Джулиан Седжуик, Андреа Гонзалез, Сэм Шепард, Дуайт Йокам, Мануэль Руис

О фильме:
Мексика, 1888 год. Две очаровательные налётчицы - образованная европейка и грубоватая мексиканка - наводят ужас на банки Дикого Запада. Никто не может противостоять их изобретательности и неустрашимости. И, тем более, никто не может устоять перед их красотой...



Страна: Франция, Мексика, США
Студия: A.J.O.Z. Films, Canal+ [fr], Europa Corp.
Продолжительность: 01:33:12
Перевод: Дублированный (Мосфильм-Мастер), профессиональный многоголосый (Пятый канал), авторский одноголосый (А. Гаврилов), украинский профессиональный двухголосый (Новый канал), украинский профессиональный двухголосый (TET)

Файл
Кодек: MPEG-4 AVC
Качество: Blu-ray Remux 1080p
Видео: MPEG-4 AVC, 20.1 Mбит/с, 1920x1080 (16:9), 23,976 кадр/с
Аудио #1: Русский, DTS, 48000 Гц, 768 Кбит/с, 6 каналов (5.1) - DUB [Мосфильм-Мастер]
Аудио #2: Русский, Dolby AC3, 48000 Гц, 192 Кбит/с, 2 канала (Стерео) - MVO [Пятый канал]
Аудио #3: Русский, Dolby AC3, 48000 Гц, 384 Кбит/с, 6 каналов (5.1) - AVO [А. Гаврилов]
Аудио #4: Украинский, Dolby AC3, 48000 Гц, 192 Кбит/с, 2 канала (Стерео) - DVO [Новый канал]
Аудио #5: Украинский, Dolby AC3, 48000 Гц, 192 Кбит/с, 2 канала (Стерео) - DVO [TET]
Аудио #6: Английский, DTS-HD MA, 48000 Гц, 2226 Кбит/с, 6 каналов (5.1) - Оригинал
Субтитры: Русские, английские (полные, SRT)
Навигация по главам: Есть (Сохранены оригинальные чаптеры как на Blu-ray)



General
Unique ID : 177328158990927611098818875671521447247 (0x856829405D382EE9A1155C94C766CD4F)
Complete name : Bandidas.2006.BDRemux.1080p.mkv
Format : Matroska
File size : 15.6 GiB
Duration : 1h 33mn
Overall bit rate : 23.9 Mbps
Movie name : Бандитки / Bandidas (2006) Blu-ray Remux (1080p)
Encoded date : UTC 2014-12-04 12:34:13
Writing application : mkvmerge v6.1.0 ('Old Devil') built on Mar 4 2013 09:10:42
Writing library : libebml v1.3.0 + libmatroska v1.4.0

Video
ID : 1
Format : AVC
Format/Info : Advanced Video Codec
Format profile : High@L4.1
Format settings, CABAC : Yes
Format settings, ReFrames : 4 frames
Codec ID : V_MPEG4/ISO/AVC
Duration : 1h 33mn
Bit rate mode : Variable
Bit rate : 20.1 Mbps
Maximum bit rate : 40.0 Mbps
Width : 1 920 pixels
Height : 1 080 pixels
Display aspect ratio : 16:9
Frame rate : 23.976 fps
Color space : YUV
Chroma subsampling : 4:2:0
Bit depth : 8 bits
Scan type : Progressive
Bits/(Pixel*Frame) : 0.405
Stream size : 13.1 GiB (84%)
Title : Бандитки / Bandidas (2006)
Language : English
Color primaries : BT.709-5, BT.1361, IEC 61966-2-4, SMPTE RP177
Transfer characteristics : BT.709-5, BT.1361
Matrix coefficients : BT.709-5, BT.1361, IEC 61966-2-4 709, SMPTE RP177

Audio #1
ID : 2
Format : DTS
Format/Info : Digital Theater Systems
Codec ID : A_DTS
Duration : 1h 33mn
Bit rate mode : Constant
Bit rate : 755 Kbps
Channel(s) : 6 channels
Channel positions : Front: L C R, Side: L R, LFE
Sampling rate : 48.0 KHz
Bit depth : 24 bits
Compression mode : Lossy
Stream size : 503 MiB (3%)
Title : DUB [Мосфильм-Мастер]
Language : Russian

Audio #2
ID : 3
Format : AC-3
Format/Info : Audio Coding 3
Mode extension : CM (complete main)
Codec ID : A_AC3
Duration : 1h 33mn
Bit rate mode : Constant
Bit rate : 192 Kbps
Channel(s) : 2 channels
Channel positions : Front: L R
Sampling rate : 48.0 KHz
Bit depth : 16 bits
Compression mode : Lossy
Stream size : 128 MiB (1%)
Title : MVO [Пятый канал]
Language : Russian

Audio #3
ID : 4
Format : AC-3
Format/Info : Audio Coding 3
Mode extension : CM (complete main)
Codec ID : A_AC3
Duration : 1h 33mn
Bit rate mode : Constant
Bit rate : 384 Kbps
Channel(s) : 6 channels
Channel positions : Front: L C R, Side: L R, LFE
Sampling rate : 48.0 KHz
Bit depth : 16 bits
Compression mode : Lossy
Stream size : 256 MiB (2%)
Title : AVO [А. Гаврилов]
Language : Russian

Audio #4
ID : 5
Format : AC-3
Format/Info : Audio Coding 3
Mode extension : CM (complete main)
Codec ID : A_AC3
Duration : 1h 33mn
Bit rate mode : Constant
Bit rate : 192 Kbps
Channel(s) : 2 channels
Channel positions : Front: L R
Sampling rate : 48.0 KHz
Bit depth : 16 bits
Compression mode : Lossy
Stream size : 128 MiB (1%)
Title : DVO [Новый канал]
Language : Ukrainian

Audio #5
ID : 6
Format : AC-3
Format/Info : Audio Coding 3
Mode extension : CM (complete main)
Codec ID : A_AC3
Duration : 1h 33mn
Bit rate mode : Constant
Bit rate : 192 Kbps
Channel(s) : 2 channels
Channel positions : Front: L R
Sampling rate : 48.0 KHz
Bit depth : 16 bits
Compression mode : Lossy
Stream size : 128 MiB (1%)
Title : DVO [ТЕТ]
Language : Ukrainian

Audio #6
ID : 7
Format : DTS
Format/Info : Digital Theater Systems
Format profile : MA / Core
Codec ID : A_DTS
Duration : 1h 33mn
Bit rate mode : Variable
Bit rate : 1 561 Kbps / 1 510 Kbps
Channel(s) : 6 channels
Channel positions : Front: L C R, Side: L R, LFE
Sampling rate : 48.0 KHz
Bit depth : 16 bits
Compression mode : Lossless / Lossy
Title : Original
Language : English

Text #1
ID : 8
Format : UTF-8
Codec ID : S_TEXT/UTF8
Codec ID/Info : UTF-8 Plain Text
Title : Full
Language : Russian

Text #2
ID : 9
Format : UTF-8
Codec ID : S_TEXT/UTF8
Codec ID/Info : UTF-8 Plain Text
Title : Full
Language : English

Menu
00:00:00.000 : en:Chapter 01
00:07:31.910 : en:Chapter 02
00:14:30.286 : en:Chapter 03
00:22:04.073 : en:Chapter 04
00:30:46.261 : en:Chapter 05
00:38:52.872 : en:Chapter 06
00:48:41.836 : en:Chapter 07
00:57:18.393 : en:Chapter 08
01:06:11.092 : en:Chapter 09
01:23:12.070 : en:Chapter 10



Автор ремукса - ivandubskoj


_________________
Проголосуй за трекер Открытый торрент трекер - RUS-MEDIA.ORG

Проголосуй Открытый торрент трекер - RUS-MEDIA.ORG



реклама партнёра


Вернуться к началу
 Профиль Отправить личное сообщение  
 
   Похожие торренты   Автор   Торрент   Размер 
В этой теме нет новых непрочитанных сообщений. Шанхайский полдень / Shanghai Noon [Боевик, комедия, приключения, вестерн, 2000] Blu-Ray Remux 1080p, Mvo+Sub

salma3

28 | 42

22.5 ГБ

В этой теме нет новых непрочитанных сообщений. Зверополис / Zootopia [2D/3D] [USA Transfer] (Байрон Ховард, Рич Мур, Джаред Буш) [2016, мультфильм, боевик, комедия, криминал, приключения, семейный, BD Remux 2D/3D 1080p] DUB [iTunes]

marya111

17 | 6

32.5 ГБ

В этой теме нет новых непрочитанных сообщений. Форсаж 8 / The Fate of the Furious [2017] ( Ф. Гэри Грей) [Боевик, триллер, криминал, приключения ] [BD-Remux] [1080p] [DD5.1] [Dub Rus, Englis + Subs Rus , ENG] [ iTunes]

Враг Нароода

2 | 0

35.69 ГБ

В этой теме нет новых непрочитанных сообщений. Человек-муравей / Ant-Man (Пейтон Рид) [фантастика, боевик, комедия, приключения, 2015] Blu-Ray Remux 1080p, Dub+Sub [2D, 3D | iTunes]

Dracon

4 | 3

35.34 ГБ

В этой теме нет новых непрочитанных сообщений. Джек Ричер 2: Никогда не возвращайся / Jack Reacher: Never Go Back [боевик, триллер, криминал, детектив, приключения, 2016] BD Remux 1080p, Dub+Sub [iTunes]

salma3

32 | 63

26.78 ГБ

В этой теме нет новых непрочитанных сообщений. Выживший / The Revenant (Алехандро Гонсалес Иньярриту) [2015, Триллер, драма, приключения, вестерн , BD-Remux 1080p] [iTunes , ESAREV , Ukrainian , English] + [Subs Rus , Eng , Ukr]

Враг Нароода

17 | 9

29.85 ГБ

В этой теме нет новых непрочитанных сообщений. Стражи Галактики. Часть 1-2 / Guardians of the Galaxy. Vol. 1-2 [2014-2017] ( Фантастика, боевик, приключения, комедия ] [BD-Remux] [1080p] [DD5.1] [Dub Rus,Ukr,Englis + Subs Rus , ENG] [ iTunes]

Враг Нароода

0 | 0

68.29 ГБ


Начать новую тему Ответить на тему  [ 1 сообщение ] 




Для Мосгорсуда, Роскомнадзора и рекламодателей:: mosgorsud-torrent[собачка]yandex.ru