Торрент файл
скачать торрент магнет ссылка Добавлен: 02 дек 2014, 12:43
Размер: 3.38 ГБ
Сидеров: 424
Личеров: 10
Статус: (Dracon)
Автор

СообщениеДобавлено: 02 дек 2014, 12:43 

Не в сети
Зам. Админа
Аватара пользователя
Дата регистрации:
02 дек 2010, 12:39
Спасибо: 12625 / 214
Сообщения: 28010
Год выхода: 2014
Жанр: триллер, ужасы, комедия
Режиссер: Кевин Смит
В ролях: Майкл Паркс, Джастин Лонг, Дженезис Родригез, Хэйли Джоэл Осмент, Джонни Депп, Харли Моренштейн, Ральф Гармен, Дженнифер Швалбах Смит, Харли Куинн Смит, Лили-Роуз Мелоди Депп

О фильме:
Журналист Уоллес Брайтон уехал брать интервью и исчез навсегда. Его друг вместе с девушкой Уоллеса отправляется на поиски. Поиски приводят пару к полицейскому в отставке, который много лет занимался поиском пропавших людей и который рассказывает им, что есть некая закономерность в пропаже людей. Люди пропадают, а потом находят их обезображенные кости. Полицейский думает, что все это дело рук серийного убийцы. Считая, что Уоллес каким-то образом попал в его руки, троица идет по следу маньяка, даже не представляя себе, что правда, которую им предстоит узнать, настолько ужасна, что в нее просто невозможно поверить.



Качество: WEB-DLRip[720p]
Видео: MPEG4/AVC, 1280×532, ~3 898 Кбит/сек, 23.976 кадра/сек
Аудио 1: русский, AC3, 2 канала, 384 Кбит/сек, 48,0 КГц        
Аудио 2: английский, AC3, 6 каналов, 384 Кбит/сек, 48,0 КГц
Продолжительность: 01:41:38
Перевод: Дублированный [Чистый звук] Официальный
Субтитры: английские
E:с торрентовBiven.2014.D.WEB-DL.720p.mkv
  General
    Unique ID : 254475992700749810422207445529193795742 (0xBF724B1F57C60710A67FE1C4D7EED09E)
    Complete name : E:с торрентовBiven.2014.D.WEB-DL.720p.mkv
    Format : Matroska
    Format version : Version 4 / Version 2
    File size : 3.38 GiB
    Duration : 1h 41mn
    Overall bit rate : 4 761 Kbps
    Encoded date : UTC 2014-12-02 06:49:50
    Writing application : mkvmerge v6.9.1 ('Blue Panther') 64bit built on Apr 18 2014 18:23:38
    Writing library : libebml v1.3.0 + libmatroska v1.4.1
  Video #1
    ID : 1
    Format : AVC
    Format/Info : Advanced Video Codec
    Format profile : Main@L3.1
    Format settings, CABAC : No
    Format settings, ReFrames : 2 frames
    Codec ID : V_MPEG4/ISO/AVC
    Duration : 1h 41mn
    Bit rate : 3 898 Kbps
    Width : 1 280 pixels
    Height : 532 pixels
    Display aspect ratio : 2.40:1
    Frame rate mode : Constant
    Frame rate : 23.976 fps
    Color space : YUV
    Chroma subsampling : 4:2:0
    Bit depth : 8 bits
    Scan type : Progressive
    Bits/(Pixel*Frame) : 0.239
    Stream size : 2.77 GiB (82%)
    Language : English
    Default : Yes
    Forced : No
    Color primaries : BT.709
    Transfer characteristics : BT.709
    Matrix coefficients : BT.709
  Audio #2
    ID : 2
    Format : AC-3
    Format/Info : Audio Coding 3
    Mode extension : CM (complete main)
    Format settings, Endianness : Big
    Codec ID : A_AC3
    Duration : 1h 41mn
    Bit rate mode : Constant
    Bit rate : 384 Kbps
    Channel(s) : 2 channels
    Channel positions : Front: L R
    Sampling rate : 48.0 KHz
    Bit depth : 16 bits
    Compression mode : Lossy
    Stream size : 279 MiB (8%)
    Language : Russian
    Default : Yes
    Forced : No
  Audio #3
    ID : 3
    Format : AC-3
    Format/Info : Audio Coding 3
    Mode extension : CM (complete main)
    Format settings, Endianness : Big
    Codec ID : A_AC3
    Duration : 1h 41mn
    Bit rate mode : Constant
    Bit rate : 384 Kbps
    Channel(s) : 6 channels
    Channel positions : Front: L C R, Side: L R, LFE
    Sampling rate : 48.0 KHz
    Bit depth : 16 bits
    Compression mode : Lossy
    Stream size : 279 MiB (8%)
    Language : English
    Default : No
    Forced : No
  Text #4
    ID : 4
    Format : UTF-8
    Codec ID : S_TEXT/UTF8
    Codec ID/Info : UTF-8 Plain Text
    Language : English
    Default : No
    Forced : No
  Menu
    00:00:00.000 : en:1
    00:09:36.000 : en:2
    00:26:20.000 : en:3
    00:37:20.000 : en:4
    00:47:28.000 : en:5
    00:57:00.000 : en:6
    01:08:45.000 : en:7
    01:20:26.000 : en:8
    01:31:42.000 : en:9
    01:35:38.000 : en:10








реклама партнёра


Вернуться к началу
 Профиль  
 
   Похожие торренты   Автор   Торрент   Размер 
В этой теме нет новых непрочитанных сообщений. Бабадук / The Babadook (Дженнифер Кент) [ужасы, триллер, драма, 2014] BDRip 720p, dub+sub [Чистый звук]

Dracon

2 | 4

4.49 ГБ

В этой теме нет новых непрочитанных сообщений. Женщина в черном 2: Ангел смерти / The Woman in Black 2: Angel of Death (Том Харпер) [ужасы, триллер, драма, 2014] BDRip 720p, dub [Чистый звук]

Dracon

1749 | 62

3.91 ГБ

В этой теме нет новых непрочитанных сообщений. Драйвер на ночь / Stretch (Джо Карнахан) [боевик, триллер, комедия, 2014] BDRip 720p, dub [Чистый звук]

Dracon

1 | 1

4.54 ГБ

В этой теме нет новых непрочитанных сообщений. Оно / It Follows (Дэвид Роберт Митчелл) [Ужасы, Детектив, 2014] BDRip 720p, dub [чистый звук]

Dracon

25 | 2

4.64 ГБ

В этой теме нет новых непрочитанных сообщений. Пещера / La cueva [ужасы, триллер, 2014] BDRip 1080p, dub [Чистый звук]

Dracon

18 | 3

6.53 ГБ

В этой теме нет новых непрочитанных сообщений. Пораженный / Afflicted [Ужасы, триллер, 2013] BDRip 720p, mvo [Чистый звук]

Dracon

246 | 6

4.56 ГБ

В этой теме нет новых непрочитанных сообщений. Джезабель / Jessabelle (Кевин Гротерт) [Ужасы, Триллер, 2014] HDRip, dub [чистый звук]

Dracon

19 | 4

1.37 ГБ


Начать новую тему Ответить на тему  [ 1 сообщение ] 




Для Мосгорсуда, Роскомнадзора и рекламодателей:: mosgorsud-torrent[собачка]yandex.ru