Торрент файл
скачать торрент магнет ссылка Добавлен: 29 ноя 2014, 00:21
Размер: 8.04 ГБ
Сидеров: 38
Личеров: 5
Автор

СообщениеДобавлено: 29 ноя 2014, 00:21 

Не в сети
Супермодератор
Аватара пользователя
Дата регистрации:
15 фев 2012, 16:44
Возраст: 28
Спасибо: 6643 / 2146
Сообщения: 45769
Год выхода: 2008
Жанр: Комедия, Пародия
Режиссер: Крэйг Мазин

В ролях: Дрэйк Белл, Сара Пэкстон, Кристофер МакДональд, Лесли Нильсен, Кевин Харт, Мэрион Росс, Райан Хансен, Кит Дэвид, Брент Спайнер, Роберт Джой, Джеффри Тэмбор, Роберт Хэйс, Николь Салливан, Сэм Коэн, Трэйси Морган, Реджина Холл, Мариса Лорен, Крэйг Бирко, Ричард Тиллман, Саймон Рекс, Дэн Кастелланета, Адам Горелик, Элисон Вудс, Эрик Артелл, Шон Симс, Памела Андерсон, Майлз Фишер, Брайан Карпентер, Винсент Ларуссо, Майкл Пападжон, Анна Оскеола, Род МакЛахлан, Джон Гец, Шарлин Тилтон, Дженика Бергер, Бирн Оффатт, Вик Полицос, Дэрил Джонсон, Кент Шокнек, Аманда Карлин, Клэй Гринбуш, Курт Фуллер, Крэйг Мазин, Джонатан Чейз, Кортни Каас

О фильме:
Сколько супергероев уже пытались спасти мир? Знакомьтесь с новым: его зовут Рик Райкер! Обычный школьник вдруг, неожиданным способом, обретает суперспособности (кроме умения летать!) Вот если бы еще он знал, как их использовать. Так что берегитесь: Стрекозец спешит на помощь!



Страна: США
Студия: Dimension Films
Продолжительность: 01:22:29
Перевод: Дублированный, профессиональный многоголосый

Файл
Кодек: h.264
Качество: BDRip 1080p
Видео: MPEG-4, 1920x1080, 12.7 Мбит/с, 25.000 кадр/с
Звук:
Аудио #1: Русский ( AC3, 6ch, 448 Кбит/с, 48.0 KHz) Дублированный
Аудио #2: Украинский ( AC3, 6ch, 384 Кбит/с, 48.0 KHz) Профессиональный многоголосый
Аудио #3: Английский ( AC3, 6ch, 448 Кбит/с, 48.0 KHz) Оригинал
Complete name : Superhero.Movie.2008.BDRip.1080p.mkv
Format : Matroska
Format version : Version 4 / Version 2
File size : 8.04 GiB
Duration : 1h 22mn
Overall bit rate : 13.9 Mbps
Encoded date : UTC 2014-11-28 16:27:30
Writing application : mkvmerge v6.9.1 ('Blue Panther') 64bit built on Apr 18 2014 18:23:38
Writing library : libebml v1.3.0 + libmatroska v1.4.1

Video
ID : 1
Format : AVC
Format/Info : Advanced Video Codec
Format profile : High@L4.1
Format settings, CABAC : Yes
Format settings, ReFrames : 4 frames
Codec ID : V_MPEG4/ISO/AVC
Duration : 1h 22mn
Bit rate : 12.7 Mbps
Width : 1 920 pixels
Height : 1 080 pixels
Display aspect ratio : 16:9
Frame rate mode : Constant
Frame rate : 25.000 fps
Color space : YUV
Chroma subsampling : 4:2:0
Bit depth : 8 bits
Scan type : Progressive
Bits/(Pixel*Frame) : 0.244
Stream size : 7.14 GiB (89%)
Writing library : x264 core 125 r2200 999b753
Encoding settings : cabac=1 / ref=4 / deblock=1:-1:-1 / analyse=0x3:0x113 / me=umh / subme=8 / psy=1 / psy_rd=1.00:0.15 / mixed_ref=1 / me_range=16 / chroma_me=1 / trellis=1 / 8x8dct=1 / cqm=0 / deadzone=21,11 / fast_pskip=1 / chroma_qp_offset=-3 / threads=6 / lookahead_threads=1 / sliced_threads=0 / nr=0 / decimate=1 / interlaced=0 / bluray_compat=0 / constrained_intra=0 / bframes=3 / b_pyramid=2 / b_adapt=2 / b_bias=0 / direct=3 / weightb=1 / open_gop=0 / weightp=2 / keyint=250 / keyint_min=25 / scenecut=40 / intra_refresh=0 / rc_lookahead=50 / rc=2pass / mbtree=1 / bitrate=12674 / ratetol=1.0 / qcomp=0.60 / qpmin=0 / qpmax=69 / qpstep=4 / cplxblur=20.0 / qblur=0.5 / ip_ratio=1.40 / aq=1:1.00
Default : Yes
Forced : No

Audio #1
ID : 2
Format : AC-3
Format/Info : Audio Coding 3
Mode extension : CM (complete main)
Format settings, Endianness : Big
Codec ID : A_AC3
Duration : 1h 22mn
Bit rate mode : Constant
Bit rate : 448 Kbps
Channel(s) : 6 channels
Channel positions : Front: L C R, Side: L R, LFE
Sampling rate : 48.0 KHz
Bit depth : 16 bits
Compression mode : Lossy
Stream size : 264 MiB (3%)
Title : Audio 1
Language : Russian
Default : Yes
Forced : No

Audio #2
ID : 3
Format : AC-3
Format/Info : Audio Coding 3
Mode extension : CM (complete main)
Format settings, Endianness : Big
Codec ID : A_AC3
Duration : 1h 22mn
Bit rate mode : Constant
Bit rate : 384 Kbps
Channel(s) : 6 channels
Channel positions : Front: L C R, Side: L R, LFE
Sampling rate : 48.0 KHz
Bit depth : 16 bits
Compression mode : Lossy
Stream size : 227 MiB (3%)
Title : Audio 2
Language : Ukrainian
Default : No
Forced : No

Audio #3
ID : 4
Format : AC-3
Format/Info : Audio Coding 3
Mode extension : CM (complete main)
Format settings, Endianness : Big
Codec ID : A_AC3
Duration : 1h 22mn
Bit rate mode : Constant
Bit rate : 448 Kbps
Channel(s) : 6 channels
Channel positions : Front: L C R, Side: L R, LFE
Sampling rate : 48.0 KHz
Bit depth : 16 bits
Compression mode : Lossy
Stream size : 264 MiB (3%)
Title : Audio 3
Language : English
Default : No
Forced : No



_________________
Проголосуй за трекер Открытый торрент трекер - RUS-MEDIA.ORG

Проголосуй Открытый торрент трекер - RUS-MEDIA.ORG



реклама партнёра


Вернуться к началу
 Профиль Отправить личное сообщение  
 
   Похожие торренты   Автор   Торрент   Размер 
В этой теме нет новых непрочитанных сообщений. Экстремальное кино / Extreme Movie [комедия, 2008] BDRip 720p, Dvo+Sub

salma3

120 | 26

3.93 ГБ

В этой теме нет новых непрочитанных сообщений. Смерть супергероя / Death of a Superhero [драма, мультфильм, 2011] BDRip 1080p, Mvo

salma3

16 | 13

7.34 ГБ

В этой теме нет новых непрочитанных сообщений. Недетское кино / Not Another Teen Movie [комедия, 2001] BDRip-AVC, Mvo+Avo

salma3

23 | 38

2.17 ГБ

В этой теме нет новых непрочитанных сообщений. Недетское кино / Not Another Teen Movie [комедия, 2001] BDRip-AVC, Mvo

salma3

42 | 12

1.46 ГБ

В этой теме нет новых непрочитанных сообщений. Недетское кино / Not Another Teen Movie [комедия, 2001] BDRip, Mvo

salma3

129 | 37

1.45 ГБ

В этой теме нет новых непрочитанных сообщений. Очень страшное кино / Scary Movie [комедия, 2000] BDRip, Dub

salma3

259 | 24

1.45 ГБ

В этой теме нет новых непрочитанных сообщений. Очень страшное кино 4 / Scary Movie 4 [комедия, 2006] BDRip, DUB

salma3

239 | 18

1.45 ГБ


Начать новую тему Ответить на тему  [ 1 сообщение ] 




Для Мосгорсуда, Роскомнадзора и рекламодателей:: mosgorsud-torrent[собачка]yandex.ru