Торрент файл
скачать торрент магнет ссылка Добавлен: 11 ноя 2014, 12:19
Размер: 6.57 ГБ
Сидеров: 9
Личеров: 3
Автор

СообщениеДобавлено: 11 ноя 2014, 12:19 

Не в сети
Зам. Админа
Аватара пользователя
Дата регистрации:
02 дек 2010, 12:39
Спасибо: 12620 / 214
Сообщения: 28049
Год выхода: 2014
Жанр: фантастика, боевик, драма
Режиссер: Мэтт Ривз
В ролях: Энди Серкис, Джейсон Кларк, Гари Олдман, Кери Рассел, Тоби Кеббелл, Коди Смит-МакФи, Кирк Асеведо, Ник Тёрстон, Терри Нотари

О фильме:
Численность генетически модифицированных обезьян, возглавляемых Цезарем, продолжает увеличиваться, но обезьянам угрожают люди, которым удалось выжить во время ужасной эпидемии десятилетней давности. Поначалу между соперниками устанавливается хрупкий мир, но он оказывается недолговечным. Обезьяны и люди находятся на грани войны, в ходе которой станет понятно, кто из них в будущем станет безраздельно править планетой.



Качество: BDRip [720p]
Видео: MPEG-4 AVC , ~4490 kb/s, 1280 x 696, 23.976 fps
Аудио 1: русский, DTS, 768 kb/s (6 ch), 48.0 KHz |Дубляж BD CEE|    
Аудио 2: украинский, AC3 5.1, 448 kbps, 48 kHz |Дубляж BD CEE|        
Аудио 3: английский, DTS, 1509 kb/s (6 ch), 48.0 KHz |Оригинал|
Продолжительность: 02:10:24
Перевод: Дублированный [лицензия]
Субтитры: русские, украинские, английские
E:с торрентовDawn.of.the.Planet.of.the.Apes.2014.BDRip.720p.mkv
  General
    Unique ID : 254411900564660718925310913887258677926 (0xBF65F322DAE0055883F65FEBEADE12A6)
    Complete name : E:с торрентовDawn.of.the.Planet.of.the.Apes.2014.BDRip.720p.mkv
    Format : Matroska
    Format version : Version 2
    File size : 6.57 GiB
    Duration : 2h 10mn
    Overall bit rate : 7 216 Kbps
    Movie name : Dawn of the Planet of the Apes
    Encoded date : UTC 2014-11-11 03:10:50
    Writing application : mkvmerge v5.2.0 ('I can't explain') built on Dec 18 2011 18:12:03
    Writing library : libebml v1.2.3 + libmatroska v1.3.0
  Video #1
    ID : 1
    Format : AVC
    Format/Info : Advanced Video Codec
    Format profile : High@L4.1
    Format settings, CABAC : Yes
    Format settings, ReFrames : 5 frames
    Codec ID : V_MPEG4/ISO/AVC
    Duration : 2h 10mn
    Bit rate : 4 490 Kbps
    Width : 1 280 pixels
    Height : 696 pixels
    Display aspect ratio : 1.85:1
    Frame rate mode : Constant
    Frame rate : 23.976 fps
    Color space : YUV
    Chroma subsampling : 4:2:0
    Bit depth : 8 bits
    Scan type : Progressive
    Bits/(Pixel*Frame) : 0.210
    Stream size : 3.96 GiB (60%)
    Writing library : x264 core 142 r2479kMod dd79a61
    Encoding settings : cabac=1 / ref=5 / deblock=1:0:0 / analyse=0x3:0x133 / me=umh / subme=7 / psy=1 / fade_compensate=0.00 / psy_rd=1.00:0.00 / mixed_ref=1 / me_range=16 / chroma_me=1 / trellis=1 / 8x8dct=1 / cqm=0 / deadzone=21,11 / fast_pskip=1 / chroma_qp_offset=-2 / threads=18 / lookahead_threads=3 / sliced_threads=0 / nr=0 / decimate=1 / interlaced=0 / bluray_compat=0 / constrained_intra=0 / fgo=0 / bframes=3 / b_pyramid=2 / b_adapt=2 / b_bias=0 / direct=3 / weightb=1 / open_gop=0 / weightp=2 / keyint=250 / keyint_min=23 / scenecut=40 / intra_refresh=0 / rc_lookahead=40 / rc=2pass / mbtree=1 / bitrate=4490 / ratetol=1.0 / qcomp=0.60 / qpmin=0 / qpmax=69 / qpstep=4 / cplxblur=20.0 / qblur=0.5 / ip_ratio=1.40 / aq=1:1.00
    Language : English
    Default : Yes
    Forced : No
  Audio #2
    ID : 2
    Format : DTS
    Format/Info : Digital Theater Systems
    Mode : 16
    Format settings, Endianness : Big
    Codec ID : A_DTS
    Duration : 2h 10mn
    Bit rate mode : Constant
    Bit rate : 768 Kbps
    Channel(s) : 6 channels
    Channel positions : Front: L C R, Side: L R, LFE
    Sampling rate : 48.0 KHz
    Bit depth : 24 bits
    Compression mode : Lossy
    Stream size : 716 MiB (11%)
    Title : DUB BD CEE
    Language : Russian
    Default : Yes
    Forced : No
  Audio #3
    ID : 3
    Format : AC-3
    Format/Info : Audio Coding 3
    Mode extension : CM (complete main)
    Format settings, Endianness : Big
    Codec ID : A_AC3
    Duration : 2h 10mn
    Bit rate mode : Constant
    Bit rate : 448 Kbps
    Channel(s) : 6 channels
    Channel positions : Front: L C R, Side: L R, LFE
    Sampling rate : 48.0 KHz
    Bit depth : 16 bits
    Compression mode : Lossy
    Stream size : 418 MiB (6%)
    Title : DUB BD CEE
    Language : Ukrainian
    Default : No
    Forced : No
  Audio #4
    ID : 4
    Format : DTS
    Format/Info : Digital Theater Systems
    Format profile : ES
    Mode : 16
    Format settings, Endianness : Big
    Codec ID : A_DTS
    Duration : 2h 10mn
    Bit rate mode : Constant
    Bit rate : 1 509 Kbps
    Channel(s) : 6 channels
    Channel positions : Front: L C R, Side: L R, LFE
    Sampling rate : 48.0 KHz
    Bit depth : 24 bits
    Compression mode : Lossy
    Stream size : 1.37 GiB (21%)
    Language : English
    Default : No
    Forced : No
  Text #5
    ID : 5
    Format : UTF-8
    Codec ID : S_TEXT/UTF8
    Codec ID/Info : UTF-8 Plain Text
    Title : Forced
    Language : Russian
    Default : Yes
    Forced : No
  Text #6
    ID : 6
    Format : UTF-8
    Codec ID : S_TEXT/UTF8
    Codec ID/Info : UTF-8 Plain Text
    Title : Full
    Language : Russian
    Default : No
    Forced : No
  Text #7
    ID : 7
    Format : UTF-8
    Codec ID : S_TEXT/UTF8
    Codec ID/Info : UTF-8 Plain Text
    Title : Forced
    Language : Ukrainian
    Default : No
    Forced : No
  Text #8
    ID : 8
    Format : UTF-8
    Codec ID : S_TEXT/UTF8
    Codec ID/Info : UTF-8 Plain Text
    Title : Full
    Language : Ukrainian
    Default : No
    Forced : No
  Text #9
    ID : 9
    Format : UTF-8
    Codec ID : S_TEXT/UTF8
    Codec ID/Info : UTF-8 Plain Text
    Title : forced
    Language : English
    Default : No
    Forced : No
  Text #10
    ID : 10
    Format : UTF-8
    Codec ID : S_TEXT/UTF8
    Codec ID/Info : UTF-8 Plain Text
    Title : Full
    Language : English
    Default : No
    Forced : No
  Menu
    00:00:00.000 : en:00:00:00.000
    00:03:21.159 : en:00:03:21.159
    00:07:34.913 : en:00:07:34.913
    00:12:36.547 : en:00:12:36.547
    00:16:23.566 : en:00:16:23.566
    00:18:47.043 : en:00:18:47.043
    00:21:52.478 : en:00:21:52.478
    00:25:26.692 : en:00:25:26.692
    00:29:45.867 : en:00:29:45.867
    00:31:50.617 : en:00:31:50.617
    00:36:43.743 : en:00:36:43.743
    00:39:07.554 : en:00:39:07.554
    00:40:57.163 : en:00:40:57.163
    00:44:12.233 : en:00:44:12.233
    00:48:11.138 : en:00:48:11.138
    00:50:31.528 : en:00:50:31.528
    00:53:48.016 : en:00:53:48.016
    00:57:25.317 : en:00:57:25.317
    01:01:18.466 : en:01:01:18.466
    01:02:35.377 : en:01:02:35.377
    01:04:24.069 : en:01:04:24.069
    01:06:21.728 : en:01:06:21.728
    01:09:31.334 : en:01:09:31.334
    01:13:56.974 : en:01:13:56.974
    01:17:17.925 : en:01:17:17.925
    01:20:53.390 : en:01:20:53.390
    01:23:28.754 : en:01:23:28.754
    01:26:08.997 : en:01:26:08.997
    01:28:19.252 : en:01:28:19.252
    01:33:24.390 : en:01:33:24.390
    01:35:53.122 : en:01:35:53.122
    01:38:38.621 : en:01:38:38.621
    01:40:42.536 : en:01:40:42.536
    01:44:07.533 : en:01:44:07.533
    01:46:05.317 : en:01:46:05.317
    01:47:54.468 : en:01:47:54.468
    01:52:13.769 : en:01:52:13.769
    01:56:27.480 : en:01:56:27.480
    02:00:31.015 : en:02:00:31.015
    02:01:35.038 : en:02:01:35.038












реклама партнёра


Вернуться к началу
 Профиль  
 
   Похожие торренты   Автор   Торрент   Размер 
В этой теме нет новых непрочитанных сообщений. Планета обезьян: Революция / Dawn of the Planet of the Apes [фантастика, боевик, драма, 2014] BDRip 1080p, Dub+Sub [лицензия]

Dracon

6 | 3

11.97 ГБ

В этой теме нет новых непрочитанных сообщений. Планета обезьян: Революция / Dawn of the Planet of the Apes [фантастика, боевик, драма, 2014] BDRip 1080p, Dub+Sub [лицензия | 3D-Video]

Dracon

178 | 18

18.01 ГБ

В этой теме нет новых непрочитанных сообщений. Планета обезьян: Революция /  Dawn of the Planet of the Apes [фантастика, боевик, драма, 2014] DVD5, Dub+Sub [Лицензия]

Dracon

18 | 3

4.33 ГБ

В этой теме нет новых непрочитанных сообщений. Планета обезьян: Революция / Dawn of the Planet of the Apes [Фантастика, Боевик, Драма, 2014] HDRip, Dub [лицензия]

Dracon

80 | 4

1.46 ГБ

В этой теме нет новых непрочитанных сообщений. Планета обезьян: Революция / Dawn of the Planet of the Apes [фантастика, боевик, драма, 2014] Blu-ray CEE 1080p, Dub+Sub [Лицензия]

Dracon

134 | 19

43.96 ГБ

В этой теме нет новых непрочитанных сообщений. Планета обезьян: Революция / Dawn of the Planet of the Apes [фантастика, боевик, драма, 2014] WEB-DL 1080p, Dub [Лицензия]

Dracon

142 | 9

5.88 ГБ

В этой теме нет новых непрочитанных сообщений. Планета обезьян: Революция / Dawn of the Planet of the Apes [Фантастика, Боевик, Драма, 2014] HDRip, Dub [лицензия]

Dracon

2 | 2

2.05 ГБ


Начать новую тему Ответить на тему  [ 1 сообщение ] 




Для Мосгорсуда, Роскомнадзора и рекламодателей:: mosgorsud-torrent[собачка]yandex.ru