Торрент файл
скачать торрент магнет ссылка Добавлен: 10 ноя 2014, 21:33
Размер: 7.76 ГБ
Сидеров: 11
Личеров: 18
Статус: (salma3)
Автор

СообщениеДобавлено: 10 ноя 2014, 21:33 

В сети
Супермодератор
Аватара пользователя
Дата регистрации:
15 фев 2012, 16:44
Возраст: 28
Спасибо: 6643 / 2146
Сообщения: 45784
Год выхода: 2001
Страна: Аруба, США
Жанр: Боевик, комедия, приключения
Продолжительность: 01:29:22
Перевод: Профессиональный [многоголосый, двухголосый]
Режиссер: Шелдон Леттич

В ролях: Жан-Клод Ван Дамм, Чарлтон Хестон, София Милош, Брайан Томпсон, Бен Кросс, Вернон Добчефф, Сэссон Габаи,




Сюжет фильма
Неутомимый искатель приключений Руди Кафмайер, промышляющий добычей уникальных произведений искусства и редкостных диковин для богатых коллекционеров, отправляется в Израиль на поиски своего пропавшего отца, составлявшего летопись древней таинственной секты «Орден». В Иерусалиме за авантюристом со скандальной репутацией сразу начинают охотиться наемные убийцы и полиция во главе с отважной Далией Барр, которая не раз спасет Руди жизнь во время головокружительных погонь и бешеных перестрелок на узких улочках древнего города, прежде чем ему удастся разоблачить глобальный заговор безумного главаря «Ордена» стремящегося начать новую Священную войну и установить на Земле власть крови и террора.

Файл
Кодек:x264
Формат: MKV
Качество: BDRip 1080p (Источник: HQClub / BDRemux 1080p)
Видео: MPEG-4 AVC (1.85:1) 1920x1040 pix, 23.976 fps, 11154 kbps, 0.233 Bits/Pixel
Аудио I: Dolby Digital[/color][/i][/b] (2.0) 16 bit, 48 kHz, 192 kbps (MVO)
Аудио II: Dolby Digital (5.1) 16 bit, 48 kHz, 448 kbps (DVO)
Аудио III: Dolby Digital(5.1) 16 bit, 48 kHz, 640 kbps(ENG "Original")[/color]

Субтитры: SRTРусские, Английские
Меню: Сохранены оригинальные чаптеры Blu-ray

x264 [info]: frame I:1196 Avg QP:16.51 size:168319
x264 [info]: frame P:30996 Avg QP:18.99 size: 91510
x264 [info]: frame B:96376 Avg QP:21.04 size: 46024
General
Unique ID : 170224905727244591706512885406238249814 (0x80101FD3920B91FCA06A03C062781356)
Format : Matroska
Format version : Version 2
File size : 7.76 GiB
Duration : 1h 29mn
Overall bit rate : 12.4 Mbps
Movie name : Тайна ордена (2001) BDRip (1080p)
Encoded date : UTC 2014-11-09 16:41:47
Writing application : mkvmerge v5.8.0 ('No Sleep / Pillow') built on Sep 2 2012 15:37:04
Writing library : libebml v1.2.3 + libmatroska v1.3.0
Video
ID : 1
Format : AVC
Format/Info : Advanced Video Codec
Format profile : High@L4.1
Format settings, CABAC : Yes
Format settings, ReFrames : 4 frames
Codec ID : V_MPEG4/ISO/AVC
Bit rate : 11.2 Mbps
Width : 1 920 pixels
Height : 1 040 pixels
Display aspect ratio : 1.85:1
Frame rate mode : Variable
Original frame rate : 23.976 fps
Color space : YUV
Chroma subsampling : 4:2:0
Bit depth : 8 bits
Scan type : Progressive
Bits/(Pixel*Frame) : 0.233
Title : Release by Alex260680
Writing library : x264 core 142 r2479 dd79a61
Encoding settings : cabac=1 / ref=4 / deblock=1:-3:-3 / analyse=0x3:0x133 / me=umh / subme=11 / psy=1 / psy_rd=1.00:0.00 / mixed_ref=1 / me_range=32 / chroma_me=1 / trellis=2 / 8x8dct=1 / cqm=0 / deadzone=21,11 / fast_pskip=0 / chroma_qp_offset=-2 / threads=6 / lookahead_threads=1 / sliced_threads=0 / nr=0 / decimate=0 / interlaced=0 / bluray_compat=0 / constrained_intra=0 / bframes=5 / b_pyramid=2 / b_adapt=2 / b_bias=0 / direct=3 / weightb=1 / open_gop=0 / weightp=2 / keyint=240 / keyint_min=23 / scenecut=40 / intra_refresh=0 / rc=2pass / mbtree=0 / bitrate=11154 / ratetol=1.0 / qcomp=0.60 / qpmin=0 / qpmax=69 / qpstep=4 / cplxblur=20.0 / qblur=0.5 / ip_ratio=1.40 / pb_ratio=1.30 / aq=1:0.80
Language : English
Default : Yes
Forced : No
Audio #1
ID : 2
Format : AC-3
Format/Info : Audio Coding 3
Mode extension : CM (complete main)
Format settings, Endianness : Big
Codec ID : A_AC3
Duration : 1h 29mn
Bit rate mode : Constant
Bit rate : 192 Kbps
Channel(s) : 2 channels
Channel positions : Front: L R
Sampling rate : 48.0 KHz
Bit depth : 16 bits
Compression mode : Lossy
Stream size : 123 MiB (2%)
Title : MVO
Language : Russian
Default : Yes
Forced : No
Audio #2
ID : 3
Format : AC-3
Format/Info : Audio Coding 3
Mode extension : CM (complete main)
Format settings, Endianness : Big
Codec ID : A_AC3
Duration : 1h 29mn
Bit rate mode : Constant
Bit rate : 448 Kbps
Channel(s) : 6 channels
Channel positions : Front: L C R, Side: L R, LFE
Sampling rate : 48.0 KHz
Bit depth : 16 bits
Compression mode : Lossy
Stream size : 286 MiB (4%)
Title : DVO
Language : Russian
Default : No
Forced : No
Audio #3
ID : 4
Format : AC-3
Format/Info : Audio Coding 3
Mode extension : CM (complete main)
Format settings, Endianness : Big
Codec ID : A_AC3
Duration : 1h 29mn
Bit rate mode : Constant
Bit rate : 640 Kbps
Channel(s) : 6 channels
Channel positions : Front: L C R, Side: L R, LFE
Sampling rate : 48.0 KHz
Bit depth : 16 bits
Compression mode : Lossy
Stream size : 409 MiB (5%)
Title : Original
Language : English
Default : No
Forced : No
Text #1
ID : 5
Format : UTF-8
Codec ID : S_TEXT/UTF8
Codec ID/Info : UTF-8 Plain Text
Language : Russian
Default : No
Forced : No
Text #2
ID : 6
Format : UTF-8
Codec ID : S_TEXT/UTF8
Codec ID/Info : UTF-8 Plain Text
Language : English
Default : No
Forced : No
Menu
00:00:00.000 : en:Chapter 01
00:04:50.749 : en:Chapter 02
00:10:09.984 : en:Chapter 03
00:16:26.944 : en:Chapter 04
00:20:53.711 : en:Chapter 05
00:25:11.927 : en:Chapter 06
00:29:16.964 : en:Chapter 07
00:34:48.420 : en:Chapter 08
00:39:24.070 : en:Chapter 09
00:44:15.236 : en:Chapter 10
00:49:50.696 : en:Chapter 11
00:55:47.636 : en:Chapter 12
01:00:31.962 : en:Chapter 13
01:07:34.884 : en:Chapter 14
01:11:41.964 : en:Chapter 15
01:20:01.255 : en:Chapter 16


_________________
Проголосуй за трекер Открытый торрент трекер - RUS-MEDIA.ORG

Проголосуй Открытый торрент трекер - RUS-MEDIA.ORG



реклама партнёра


Вернуться к началу
 Профиль Отправить личное сообщение  
 
   Похожие торренты   Автор   Торрент   Размер 
В этой теме нет новых непрочитанных сообщений. Тайна ордена / The Order [боевик, комедия, приключения, 2001] BDRip-AVC, Mvo

salma3

10 | 4

1.45 ГБ

В этой теме нет новых непрочитанных сообщений. Тайна ордена / The Order [боевик, комедия, приключения, 2001] BDRip, Mvo

salma3

27 | 3

1.45 ГБ

В этой теме нет новых непрочитанных сообщений. Приключения Тинтина: Тайна Единорога / The Adventures of Tintin [мультфильм, боевик, детектив, 2011] BDRip 1080p, Dub

salma3

20 | 1

4.37 ГБ

В этой теме нет новых непрочитанных сообщений. Приключения Джо Грязнули / Joe Dirt [Комедия, мелодрама, приключения, детектив, 2001] BDRip 1080p, Mvo

salma3

37 | 5

8.14 ГБ

В этой теме нет новых непрочитанных сообщений. Час пик 2 / Rush Hour 2 [боевик, триллер, комедия, 2001] BDRip 1080p, Dub+Mvo+Avo+Sub

salma3

10 | 0

9.33 ГБ

В этой теме нет новых непрочитанных сообщений. История рыцаря / A Knight's Tale [приключения, боевик, комедия, 2001] BDRip, Dub

salma3

32 | 4

1.46 ГБ

В этой теме нет новых непрочитанных сообщений. 2001 маньяк / 2001 Maniacs [Ужасы, комедия, ремейк, 2005] BDRip 1080p, Dub+Sub

salma3

22 | 1

8.41 ГБ


Начать новую тему Ответить на тему  [ 1 сообщение ] 




Для Мосгорсуда, Роскомнадзора и рекламодателей:: mosgorsud-torrent[собачка]yandex.ru