Торрент файл
скачать торрент магнет ссылка Добавлен: 03 ноя 2014, 16:09
Размер: 3.01 ГБ
Сидеров: 1
Личеров: 2
Статус: (Dracon)
Автор

СообщениеДобавлено: 03 ноя 2014, 16:09 

Не в сети
Зам. Админа
Аватара пользователя
Дата регистрации:
02 дек 2010, 12:39
Спасибо: 12620 / 214
Сообщения: 28049
Лагерь «X-Ray»

Год выхода: 2014
Жанр: Драма
Режиссер: Питер Сэттлер
В ролях: Кристен Стюарт, Пейман Моаади, Кори Майкл Смит, Джон Кэрролл Линч, Тара Холт, Лэйн Гаррисон, Джулия Даффи, Юсуф Азами, Джозеф Джулиан Сория, Марко Хэнлиэн

О фильме: Девушка по имени Коул вступает в ряды вооруженных сил США и по долгу службы попадает в, пожалуй, самое жуткое место в мире — тюрьму для военнопленных Гуантанамо. Героиня знакомится там с заключенным Али, который сидит к тому времени уже восемь лет, и решается вызволить его оттуда.

Качество: WEB-DLRip[720p]
Видео: MPEG-4 AVC, 1280x528, 23.976 кадр/с, ~ 2 908 Кбит/с
Аудио 1: Русский (AC3, 2 ch, 384 Кбит/с),
Аудио 2: Английский (AC3, 6 ch, 384 Кбит/с)
Продолжительность: 01:57:11
Перевод: Профессиональный(двухголосый) [Пиратская студия]

D:ТОРРЕНТЫЛагерь «X-Ray».2014.P.WEB-DL.720p.mkv
   General
      Unique ID : 250254973908433625260446906623090078655 (0xBC455AD40E34159E823BEC94AC3DB3BF)
      Complete name : D:ТОРРЕНТЫЛагерь «X-Ray».2014.P.WEB-DL.720p.mkv
      Format : Matroska
      Format version : Version 4 / Version 2
      File size : 3.01 GiB
      Duration : 1h 57mn
      Overall bit rate : 3 678 Kbps
      Encoded date : UTC 2014-11-02 14:29:45
      Writing application : mkvmerge v7.0.0 ('Where We Going') 64bit built on Jun  9 2014 15:16:27
      Writing library : libebml v1.3.0 + libmatroska v1.4.1
      DURATION : 01:57:10.880000000
      NUMBER_OF_FRAMES : 219715
      NUMBER_OF_BYTES : 337482240
      _STATISTICS_WRITING_APP : mkvmerge v7.0.0 ('Where We Going') 64bit built on Jun  9 2014 15:16:27
      _STATISTICS_WRITING_DATE_UTC : 2014-11-02 14:29:45
      _STATISTICS_TAGS : BPS DURATION NUMBER_OF_FRAMES NUMBER_OF_BYTES
   Video #1
      ID : 1
      Format : AVC
      Format/Info : Advanced Video Codec
      Format profile : High@L4.1
      Format settings, CABAC : Yes
      Format settings, ReFrames : 6 frames
      Codec ID : V_MPEG4/ISO/AVC
      Duration : 1h 57mn
      Bit rate : 2 908 Kbps
      Width : 1 280 pixels
      Height : 528 pixels
      Display aspect ratio : 2.40:1
      Frame rate : 23.976 fps
      Color space : YUV
      Chroma subsampling : 4:2:0
      Bit depth : 8 bits
      Scan type : Progressive
      Bits/(Pixel*Frame) : 0.179
      Stream size : 2.32 GiB (77%)
      Writing library : x264 core 142 r2409 d6b4e63
      Encoding settings : cabac=1 / ref=6 / deblock=1:1:1 / analyse=0x3:0x113 / me=hex / subme=7 / psy=1 / psy_rd=0.40:0.00 / mixed_ref=1 / me_range=16 / chroma_me=1 / trellis=1 / 8x8dct=1 / cqm=0 / deadzone=21,11 / fast_pskip=1 / chroma_qp_offset=-2 / threads=12 / lookahead_threads=2 / sliced_threads=0 / nr=0 / decimate=1 / interlaced=0 / bluray_compat=0 / constrained_intra=0 / bframes=5 / b_pyramid=2 / b_adapt=1 / b_bias=0 / direct=1 / weightb=1 / open_gop=0 / weightp=2 / keyint=240 / keyint_min=23 / scenecut=40 / intra_refresh=0 / rc_lookahead=40 / rc=2pass / mbtree=1 / bitrate=2908 / ratetol=1.0 / qcomp=0.60 / qpmin=0 / qpmax=69 / qpstep=4 / cplxblur=20.0 / qblur=0.5 / vbv_maxrate=62500 / vbv_bufsize=78125 / nal_hrd=none / filler=0 / ip_ratio=1.40 / aq=1:0.60
      Default : Yes
      Forced : No
   Audio #2
      ID : 2
      Format : AC-3
      Format/Info : Audio Coding 3
      Mode extension : CM (complete main)
      Codec ID : A_AC3
      Duration : 1h 57mn
      Bit rate mode : Constant
      Bit rate : 384 Kbps
      Channel(s) : 2 channels
      Channel positions : Front: L R
      Sampling rate : 48.0 KHz
      Bit depth : 16 bits
      Compression mode : Lossy
      Stream size : 322 MiB (10%)
      Default : Yes
      Forced : No
   Audio #3
      ID : 3
      Format : AC-3
      Format/Info : Audio Coding 3
      Mode extension : CM (complete main)
      Codec ID : A_AC3
      Duration : 1h 57mn
      Bit rate mode : Constant
      Bit rate : 384 Kbps
      Channel(s) : 6 channels
      Channel positions : Front: L C R, Side: L R, LFE
      Sampling rate : 48.0 KHz
      Bit depth : 16 bits
      Compression mode : Lossy
      Stream size : 322 MiB (10%)
      Language : English
      Default : No
      Forced : No










реклама партнёра


Вернуться к началу
 Профиль  
 
   Похожие торренты   Автор   Торрент   Размер 
В этой теме нет новых непрочитанных сообщений. Лагерь «X-Ray» / Camp X-Ray (Питер Сэттлер) [Драма, 2014] BDRip 720p [сладкая парочка]

Марик

140 | 11

2.17 ГБ

В этой теме нет новых непрочитанных сообщений. Стрингер / Nightcrawler [триллер, драма, криминал, 2014] WEBRip 720p [Пиратская студия]

Dracon

1997 | 67

2.14 ГБ

В этой теме нет новых непрочитанных сообщений. Бабадук / The Babadook [ужасы, триллер, драма, 2014] BDRip 720p, Dvo+Sub [Пиратская Студия]

Dracon

201 | 7

4.49 ГБ

В этой теме нет новых непрочитанных сообщений. Лагерь «X-Ray» / Camp X-Ray [Драма, 2014] WEB-DLRip, Mvo

Dracon

132 | 7

1.46 ГБ

В этой теме нет новых непрочитанных сообщений. В изгнании / Outcast [Боевик, 2014] WEB-DL 720p [Пиратская студия]

Dracon

32 | 3

3.4 ГБ

В этой теме нет новых непрочитанных сообщений. Лагерь «X-Ray» / Camp X-Ray (Питер Сэттлер) [Драма, 2014] HDRip [сладкая парочка]

Марик

82 | 8

1.46 ГБ

В этой теме нет новых непрочитанных сообщений. Бабадук / The Babadook [ужасы, триллер, драма, 2014] BDRip 1080p, Dvo+Sub [Пиратская Студия]

Dracon

5 | 2

6.68 ГБ


Начать новую тему Ответить на тему  [ 1 сообщение ] 




Для Мосгорсуда, Роскомнадзора и рекламодателей:: mosgorsud-torrent[собачка]yandex.ru