Торрент файл
скачать торрент магнет ссылка Добавлен: 22 окт 2014, 11:36
Размер: 3.65 ГБ
Сидеров: 29
Личеров: 5
Статус: (Dracon)
Автор

СообщениеДобавлено: 22 окт 2014, 11:36 

Не в сети
Зам. Админа
Аватара пользователя
Дата регистрации:
02 дек 2010, 12:39
Спасибо: 12620 / 214
Сообщения: 28049
Год выпуска: 2013
Страна: США
Жанр: драма, мелодрама, комедия
Продолжительность: 01:55:44
Перевод: дублированный, любительский многоголосый
Субтитры: русские, английские

Режиссёр: Фред Скеписи

В ролях: Клайв Оуэн, Жюльетт Бинош, Валери Тиан, Навид Негабан, Брюс Дэвисон, Эми Бреннеман, Адам ДиМарко, Джош Ссеттуба, Джанет Киддер

Описание: Учитель английского языка и преподаватель искусства встречаются в престижной подготовительной школе. Между ними складываются непростые взаимоотношения. Более того, они положили начало войне: студенты теперь пытаются доказать что сильнее — слово или изображение. Но настоящая война идёт против внутренних демонов преподавателей, пока их души борются за воссоединение…



Качество: BDRip 720p Сравнение с исходником
Формат: MKV
Видео кодек: H.264
Видео: 1280x536, 3403 kbps, 23.976 кадра/с, 0.207 bpp
Аудио 1: русский, AC3, 192 kbps, 2 ch, 48 kHz [дублированный]
Аудио 2: русский, AC3, 384 kbps, 6 ch, 48 kHz [любительский многоголосый, Victory-Films, Перевод Notabenoid]
Аудио 3: английский, AC3, 448 kbps, 6 ch, 48 kHz [оригинал]

Имеются неименованные главы/чаптеры.

frame I:1462 Avg QP:16.59 size:109044
frame P:31423 Avg QP:17.63 size: 37741
frame B:133623 Avg QP:18.74 size: 12605

Общее
Уникальный идентификатор : 172030610663016214847425321356872875608 (0x816BE3F40DB92ABF88FA2A039D677E58)
Полное имя : D:VideoLjubov v slovah i kartinkah.2013.BDRip.720p.mkv
Формат : Matroska
Версия формата : Version 4 / Version 2
Размер файла : 3,65 Гбайт
Продолжительность : 1 ч. 55 м.
Общий поток : 4517 Кбит/сек
Дата кодирования : UTC 2014-10-22 03:42:15
Программа кодирования : mkvmerge v6.9.1 ('Blue Panther') 64bit built on Apr 18 2014 18:23:38
Библиотека кодирования : libebml v1.3.0 + libmatroska v1.4.1

Видео
Идентификатор : 1
Формат : AVC
Формат/Информация : Advanced Video Codec
Профиль формата : High@L4.1
Параметр CABAC формата : Да
Параметр ReFrames формата : 9 кадров
Идентификатор кодека : V_MPEG4/ISO/AVC
Продолжительность : 1 ч. 55 м.
Битрейт : 3403 Кбит/сек
Ширина : 1280 пикселей
Высота : 536 пикселей
Соотношение сторон : 2,40:1
Режим частоты кадров : Постоянный
Частота кадров : 23,976 кадра/сек
Цветовое пространство : YUV
Субдискретизация насыщенности : 4:2:0
Битовая глубина : 8 бит
Тип развёртки : Прогрессивная
Бит/(Пиксели*Кадры) : 0.207
Размер потока : 2,75 Гбайт (75%)
Заголовок : BDRip -- STarankov)
Библиотека кодирования : x264 core 142 r2431 ac76440
Настройки программы : cabac=1 / ref=9 / deblock=1:-1:-1 / analyse=0x3:0x113 / me=umh / subme=10 / psy=1 / psy_rd=1.00:0.15 / mixed_ref=1 / me_range=32 / chroma_me=1 / trellis=2 / 8x8dct=1 / cqm=0 / deadzone=21,11 / fast_pskip=1 / chroma_qp_offset=-3 / threads=6 / lookahead_threads=1 / sliced_threads=0 / nr=0 / decimate=1 / interlaced=0 / bluray_compat=0 / constrained_intra=0 / bframes=8 / b_pyramid=2 / b_adapt=2 / b_bias=0 / direct=3 / weightb=1 / open_gop=0 / weightp=2 / keyint=230 / keyint_min=23 / scenecut=40 / intra_refresh=0 / rc_lookahead=40 / rc=crf / mbtree=0 / crf=18.0 / qcomp=0.60 / qpmin=0 / qpmax=69 / qpstep=4 / vbv_maxrate=50000 / vbv_bufsize=62500 / crf_max=0.0 / nal_hrd=none / filler=0 / ip_ratio=1.40 / pb_ratio=1.30 / aq=1:1.00
Язык : English
Default : Да
Forced : Нет

Аудио #1
Идентификатор : 2
Формат : AC-3
Формат/Информация : Audio Coding 3
Расширение режима : CM (complete main)
Параметр Endianness формата : Big
Идентификатор кодека : A_AC3
Продолжительность : 1 ч. 55 м.
Вид битрейта : Постоянный
Битрейт : 192 Кбит/сек
Каналы : 2 канала
Расположение каналов : Front: L R
Частота : 48,0 КГц
Битовая глубина : 16 бит
Метод сжатия : С потерями
Размер потока : 159 Мбайт (4%)
Заголовок : DUB
Язык : Russian
Default : Да
Forced : Нет

Аудио #2
Идентификатор : 3
Формат : AC-3
Формат/Информация : Audio Coding 3
Расширение режима : CM (complete main)
Параметр Endianness формата : Big
Идентификатор кодека : A_AC3
Продолжительность : 1 ч. 55 м.
Вид битрейта : Постоянный
Битрейт : 384 Кбит/сек
Каналы : 6 каналов
Расположение каналов : Front: L C R, Side: L R, LFE
Частота : 48,0 КГц
Битовая глубина : 16 бит
Метод сжатия : С потерями
Размер потока : 318 Мбайт (9%)
Заголовок : MVO (Victory-Films,любительский)
Язык : Russian
Default : Нет
Forced : Нет

Аудио #3
Идентификатор : 4
Формат : AC-3
Формат/Информация : Audio Coding 3
Расширение режима : CM (complete main)
Параметр Endianness формата : Big
Идентификатор кодека : A_AC3
Продолжительность : 1 ч. 55 м.
Вид битрейта : Постоянный
Битрейт : 448 Кбит/сек
Каналы : 6 каналов
Расположение каналов : Front: L C R, Side: L R, LFE
Частота : 48,0 КГц
Битовая глубина : 16 бит
Метод сжатия : С потерями
Размер потока : 371 Мбайт (10%)
Заголовок : Original
Язык : English
Default : Нет
Forced : Нет

Текст #1
Идентификатор : 5
Формат : UTF-8
Идентификатор кодека : S_TEXT/UTF8
Идентификатор кодека/Информация : UTF-8 Plain Text
Заголовок : русский
Язык : Russian
Default : Нет
Forced : Нет

Текст #2
Идентификатор : 6
Формат : UTF-8
Идентификатор кодека : S_TEXT/UTF8
Идентификатор кодека/Информация : UTF-8 Plain Text
Заголовок : английский
Default : Нет
Forced : Нет

Меню
00:00:00.000 : :Chapter 01
00:05:00.000 : :Chapter 02
00:10:00.000 : :Chapter 03
00:15:00.000 : :Chapter 04
00:20:00.000 : :Chapter 05
00:25:00.000 : :Chapter 06
00:30:00.000 : :Chapter 07
00:35:00.000 : :Chapter 08
00:40:00.000 : :Chapter 09
00:45:00.000 : :Chapter 10
00:50:00.000 : :Chapter 11
00:55:00.000 : :Chapter 12
01:00:00.000 : :Chapter 13
01:05:00.000 : :Chapter 14
01:10:00.000 : :Chapter 15
01:15:00.000 : :Chapter 16
01:20:00.000 : :Chapter 17
01:25:00.000 : :Chapter 18
01:30:00.000 : :Chapter 19
01:35:00.000 : :Chapter 20
01:40:00.000 : :Chapter 21
01:45:00.000 : :Chapter 22
01:50:00.000 : :Chapter 23
01:55:00.000 : :Chapter 24





реклама партнёра


Вернуться к началу
 Профиль  
 
   Похожие торренты   Автор   Торрент   Размер 
В этой теме нет новых непрочитанных сообщений. Любовь в словах и картинах / Любовь в словах и картинках / Words and Pictures [драма, мелодрама, комедия, 2013] HDRip, Dub [НТВ]

Dracon

244 | 18

1.45 ГБ

В этой теме нет новых непрочитанных сообщений. Любовь в словах и картинках / Words and Pictures [драма, мелодрама, комедия, 2013] BDRip 1080p, Dub+Sub

Dracon

13 | 2

9.98 ГБ

В этой теме нет новых непрочитанных сообщений. Любовь в словах и картинках / Words and Pictures [мелодрама, 2013] BDRip 720p, Dub+Sub [iTunes]

Dracon

35 | 4

6.45 ГБ

В этой теме нет новых непрочитанных сообщений. Любовь в словах и картинках / Words and Pictures [мелодрама, 2013] BDRip 1080p, Dub+Sub [iTunes]

Dracon

16 | 3

11.89 ГБ

В этой теме нет новых непрочитанных сообщений. Любовь, сбивающая с ног / Punch-Drunk Love [триллер, драма, мелодрама, комедия, 2002] BDRip 720p, Dvo

salma3

0 | 0

5.71 ГБ

В этой теме нет новых непрочитанных сообщений. Любовь на диете / Sau sun nam nui [комедия, мелодрама, 2001] BDRip 720p, Avo+Sub

salma3

6 | 4

4.66 ГБ

В этой теме нет новых непрочитанных сообщений. Любовь или секс / The Bounceback (Брайан Пойсер) [мелодрама, комедия, 2013] WEB-DL 720p, Mvo

Dracon

7 | 2

2.96 ГБ


Начать новую тему Ответить на тему  [ 1 сообщение ] 




Для Мосгорсуда, Роскомнадзора и рекламодателей:: mosgorsud-torrent[собачка]yandex.ru