COVID-19 - Последняя информация о коронавирусе на сайте Минздрава




Торрент файл
Автор

СообщениеДобавлено: 02 ноя 2016, 02:36 

Не в сети
Дата регистрации:
28 сен 2016, 18:10
Спасибо: 231 / 0
Сообщения: 1982
[bй1]Большой и добрый великан[/b] / The BFG
Страна: Великобритания Канада США
Производство: Walt Disney Pictures, DreamWorks SKG, Reliance Entertainment, Amblin Entertainment, Walden Media
Год выпуска: 2016
Жанр: фэнтези, приключения, семейный
Продолжительность: 01:58:25
Режиссер: Стивен Спилберг
Авторы сценария: Мелисса Мэтисон, Роальд Даль
В ролях: Марк Райлэнс, Руби Барнхилл, Пенелопа Уилтон, Джемейн Клемент, Ребекка Холл, Рейф Сполл, Билл Хейдер, Оулавюр Дарри Оулафссон
Описание: В центре истории девочка по имени Софи, которая не смогла заснуть до полуночи и в окошко увидела огромного великана, который подходил к соседним домам и начинал дуть в окна спален. В полном соответствии со старинными поверьями и детскими страшилками, великан увидел Софи и унес к себе домой, в страну великанов. Как оказалось, он в этой самой стране был единственным добрым великаном: действуя в обстановке строжайшей секретности, он коллекционировал хорошие сны, которые по ночам раздавал детям. Уши у него устроены таким образом, что он слышит, что и о чем снится ребятам, и никогда не позволяет им видеть кошмары...

Перевод: Профессиональный (полное дублирование) | Звук с TS
Субтитры: нет

Качество: WEB-DLRip
Формат: АVI
Видео кодек: XviD
Аудио кодек: АС3
Видео: 720x304 (2.35:1), 23.976 fps, XviD ~1 197 kbps avg
Аудио: 48.0 kHz, AC3 Dolby Digital, 2/0 (L,R) ch, ~384 kbps
Бюджет: $140 000 000
Дата премьеры (мир): 14 мая 2016
Дата премьеры (РФ): 30 июня 2016, «WDSSPR»

General
Complete name : The.BFG.2O16.Dt.WEB-DLRip.14OOMB_KOSHARA.avi
Format : AVI
Format/Info : Audio Video Interleave
File size : 1.37 GiB
Duration : 1h 58mn
Overall bit rate : 1 656 Kbps
Writing application : VirtualDubMod 1.5.10.2 (build 2540/release)
Writing library : VirtualDubMod build 2540/release
Video #0
ID : 0
Format : MPEG-4 Visual
Format profile : Advanced Simple@L5
Format settings, BVOP : 2
Format settings, QPel : No
Format settings, GMC : No warppoints
Format settings, Matrix : Custom
Codec ID : XVID
Codec ID/Hint : XviD
Duration : 1h 58mn
Bit rate : 1 197 Kbps
Width : 720 pixels
Height : 304 pixels
Display aspect ratio : 2.35:1
Frame rate : 23.976 fps
Color space : YUV
Chroma subsampling : 4:2:0
Bit depth : 8 bits
Scan type : Progressive
Compression mode : Lossy
Bits/(Pixel*Frame) : 0.228
Stream size : 1 014 MiB (72%)
Writing library : XviD 1.2.1 (UTC 2008-12-04)
Audio #1
ID : 1
Format : AC-3
Format/Info : Audio Coding 3
Mode extension : CM (complete main)
Format settings, Endianness : Big
Codec ID : 2000
Duration : 1h 58mn
Bit rate mode : Constant
Bit rate : 384 Kbps
Channel(s) : 2 channels
Channel positions : Front: L R
Sampling rate : 48.0 KHz
Bit depth : 16 bits
Compression mode : Lossy
Stream size : 325 MiB (23%)
Alignment : Split accross interleaves




Скачать книги и аудио книги через торрент


Вернуться к началу
 Профиль Отправить личное сообщение  
 
   Похожие торренты   Автор   Торрент   Размер 
В этой теме нет новых непрочитанных сообщений. Эбигейл [приключения, фэнтези, семейный, 2019] WEB-DLRip [iTunes]

salma3

589 | 20

1.46 ГБ

В этой теме нет новых непрочитанных сообщений. Принцесса-лягушка: Тайна волшебной комнаты / The Frog Kingdom 2: Sub-Zero Mission [мультфильм, приключения, комедия, 2016] WEB-DLRip, Dub [Чистый звук]

salma3

10 | 3

1.37 ГБ

В этой теме нет новых непрочитанных сообщений. Пираты Карибского моря: Мертвецы не рассказывают сказки / Pirates of the Caribbean: Dead Men Tell No Tales [фэнтези, боевик, комедия, приключения, 2017] WEB-DLRip, Dub [звук с TS]

salma3

2115 | 430

1.37 ГБ

В этой теме нет новых непрочитанных сообщений. Малефисента: Владычица тьмы / Maleficent: Mistress of Evil [Фэнтези, приключения, семейный, 2019] WEB-DLRip Dub [iTunes]

salma3

1636 | 616

1.47 ГБ

В этой теме нет новых непрочитанных сообщений. Последний убийца драконов / The Last Dragonslayer [Фэнтези, комедия, приключения, 2016] WEB-DLRip, Dvo [LakeFilms]

salma3

0 | 0

1.69 ГБ

В этой теме нет новых непрочитанных сообщений. Добрый вечер [комедия, криминал, 2018] WEB-DLRip [iTunes]

salma3

0 | 0

1.49 ГБ

В этой теме нет новых непрочитанных сообщений. Последний убийца драконов / The Last Dragonslayer [Фэнтези, комедия, приключения, 2016] WEB-DLRip 720p, Dvo [LakeFilms]

salma3

0 | 0

2.24 ГБ


Начать новую тему Ответить на тему  [ 1 сообщение ] 




Для Мосгорсуда, Роскомнадзора и рекламодателей:: rstracker[собака]yandex.ru