Торрент файл
Автор

СообщениеДобавлено: 02 ноя 2016, 02:36 

Не в сети
Дата регистрации:
28 сен 2016, 18:10
Спасибо: 231 / 0
Сообщения: 1989
Большой и добрый великан / The BFG
Страна: Великобритания Канада США
Производство: Walt Disney Pictures, DreamWorks SKG, Reliance Entertainment, Amblin Entertainment, Walden Media
Год выпуска: 2016
Жанр: фэнтези, приключения, семейный
Продолжительность: 01:58:25
Режиссер: Стивен Спилберг
Авторы сценария: Мелисса Мэтисон, Роальд Даль
В ролях: Марк Райлэнс, Руби Барнхилл, Пенелопа Уилтон, Джемейн Клемент, Ребекка Холл, Рейф Сполл, Билл Хейдер, Оулавюр Дарри Оулафссон
Описание: В центре истории девочка по имени Софи, которая не смогла заснуть до полуночи и в окошко увидела огромного великана, который подходил к соседним домам и начинал дуть в окна спален. В полном соответствии со старинными поверьями и детскими страшилками, великан увидел Софи и унес к себе домой, в страну великанов. Как оказалось, он в этой самой стране был единственным добрым великаном: действуя в обстановке строжайшей секретности, он коллекционировал хорошие сны, которые по ночам раздавал детям. Уши у него устроены таким образом, что он слышит, что и о чем снится ребятам, и никогда не позволяет им видеть кошмары...

Перевод: Профессиональный (полное дублирование) | Звук с TS
Субтитры: нет

Качество: WEB-DLRip
Формат: АVI
Видео кодек: XviD
Аудио кодек: АС3
Видео: 720x304 (2.35:1), 23.976 fps, XviD ~1 197 kbps avg
Аудио: 48.0 kHz, AC3 Dolby Digital, 2/0 (L,R) ch, ~384 kbps
Бюджет: $140 000 000
Дата премьеры (мир): 14 мая 2016
Дата премьеры (РФ): 30 июня 2016, «WDSSPR»

General
Complete name : The.BFG.2O16.Dt.WEB-DLRip.14OOMB_KOSHARA.avi
Format : AVI
Format/Info : Audio Video Interleave
File size : 1.37 GiB
Duration : 1h 58mn
Overall bit rate : 1 656 Kbps
Writing application : VirtualDubMod 1.5.10.2 (build 2540/release)
Writing library : VirtualDubMod build 2540/release
Video #0
ID : 0
Format : MPEG-4 Visual
Format profile : Advanced Simple@L5
Format settings, BVOP : 2
Format settings, QPel : No
Format settings, GMC : No warppoints
Format settings, Matrix : Custom
Codec ID : XVID
Codec ID/Hint : XviD
Duration : 1h 58mn
Bit rate : 1 197 Kbps
Width : 720 pixels
Height : 304 pixels
Display aspect ratio : 2.35:1
Frame rate : 23.976 fps
Color space : YUV
Chroma subsampling : 4:2:0
Bit depth : 8 bits
Scan type : Progressive
Compression mode : Lossy
Bits/(Pixel*Frame) : 0.228
Stream size : 1 014 MiB (72%)
Writing library : XviD 1.2.1 (UTC 2008-12-04)
Audio #1
ID : 1
Format : AC-3
Format/Info : Audio Coding 3
Mode extension : CM (complete main)
Format settings, Endianness : Big
Codec ID : 2000
Duration : 1h 58mn
Bit rate mode : Constant
Bit rate : 384 Kbps
Channel(s) : 2 channels
Channel positions : Front: L R
Sampling rate : 48.0 KHz
Bit depth : 16 bits
Compression mode : Lossy
Stream size : 325 MiB (23%)
Alignment : Split accross interleaves




Скачать книги и аудио книги через торрент


Вернуться к началу
 Профиль Отправить личное сообщение  
 
   Похожие торренты   Автор   Торрент   Размер 
В этой теме нет новых непрочитанных сообщений. Большой и добрый великан / The BFG [Фэнтези, приключения, семейный, 2016] DVD5, Dub

salma3

32 | 31

4.37 ГБ

В этой теме нет новых непрочитанных сообщений. Большой и добрый великан / The BFG [фэнтези, приключения, семейный, 2016] BDRip-AVC, Dub [iTunes]

salma3

68 | 20

2.19 ГБ

В этой теме нет новых непрочитанных сообщений. Большой и добрый великан / The BFG [Фэнтези, приключения, семейный, 2016] BDRip 1080p, Dub+Sub [3D-Video] [Лицензия]

salma3

110 | 36

8.09 ГБ

В этой теме нет новых непрочитанных сообщений. Большой и добрый великан / The BFG [Фэнтези, приключения, семейный, 2016] BDRip 1080p, Dub+Sub [3D-Video] [Лицензия]

salma3

54 | 22

7.27 ГБ

В этой теме нет новых непрочитанных сообщений. Большой и добрый великан / The BFG [Фэнтези, приключения, семейный, 2016] Blu-Ray EUR, Dub [Лицензия]

salma3

39 | 35

39.63 ГБ

В этой теме нет новых непрочитанных сообщений. Большой и добрый великан / The BFG [фэнтези, приключения, семейный, 2016] BDRip 720p, Dub [iPad] [Лицензия]

salma3

0 | 0

2.26 ГБ

В этой теме нет новых непрочитанных сообщений. Большой и добрый великан / The BFG (Стивен Спилберг) [2016, Фэнтези, экранизация, приключения, семейный, HDRip-AVC | Line]

marya111

627 | 26

1.45 ГБ


Начать новую тему Ответить на тему  [ 1 сообщение ] 




Для Мосгорсуда, Роскомнадзора и рекламодателей:: mosgorsud-torrent[собачка]yandex.ru