Торрент файл
Автор

СообщениеДобавлено: 10 окт 2016, 01:50 

Не в сети
Дата регистрации:
28 сен 2016, 18:10
Спасибо: 211 / 0
Сообщения: 1999
Отряд самоубийц / Suicide Squad
Страна: США
Производство: Warner Bros. Pictures, DC Entertainment, DC Comics, Dune Entertainment, Atlas Entertainment
Год выпуска: 2016
Жанр: фантастика, фэнтези, боевик, триллер, криминал
Продолжительность: 02:02:43
Режиссер: Дэвид Эйр
Авторы сценария: Дэвид Эйр, Джон Острандер

В ролях: Марго Робби, Уилл Смит, Джаред Лето, Джай Кортни, Кара Делевинь, Джей Эрнандес, Юэль Киннаман, Виола Дэвис, Скотт Иствуд

Описание: Правительство решает дать команде суперзлодеев шанс на искупление. Подвох в том, что их отправляют на миссию, где они, вероятнее всего, погибнут...



Перевод: Профессиональный (полное дублирование) | Звук с TS
Субтитры: китайские (вшитые)

Качество: WEBRip 1080р
Формат: МКV
Видео кодек: AVC
Аудио кодек: АС3
Видео: 1920x800 (2.40:1), 29.970 fps, MPEG-4 AVC ~6 343 kbps avg
Аудио: 48.0 kHz, AC3 Dolby Digital, 2/0 (L,R) ch, ~384 kbps
Дата премьеры (мир): 1 августа 2016
Дата премьеры (РФ): 4 августа 2016, «Каро-Премьер»

General
Unique ID : 179123652693604633210712195687757801189 (0x86C1F5ECF747AA88BBD253F8110666E5)
Complete name : Otriyd.SamouUbiyTs.2O16.Dt.HDTV.1O8Op_KOSHARA.mkv
Format : Matroska
Format version : Version 2
File size : 5.88 GiB
Duration : 2h 2mn
Overall bit rate mode : Variable
Overall bit rate : 6 864 Kbps
Encoded date : UTC 2016-10-07 20:35:55
Writing application : mkvmerge v8.3.0 ('Over the Horizon') 64bit
Writing library : libebml v1.3.1 + libmatroska v1.4.2
Video #1
ID : 1
Format : AVC
Format/Info : Advanced Video Codec
Format profile : High@L4.1
Format settings, CABAC : Yes
Format settings, ReFrames : 5 frames
Codec ID : V_MPEG4/ISO/AVC
Duration : 2h 2mn
Bit rate mode : Variable
Bit rate : 6 343 Kbps
Maximum bit rate : 6 900 Kbps
Width : 1 920 pixels
Height : 800 pixels
Display aspect ratio : 2.40:1
Frame rate mode : Constant
Frame rate : 29.970 fps
Standard : Component
Color space : YUV
Chroma subsampling : 4:2:0
Bit depth : 8 bits
Scan type : Progressive
Bits/(Pixel*Frame) : 0.138
Stream size : 5.44 GiB (92%)
Default : Yes
Forced : No
Color primaries : BT.709
Transfer characteristics : BT.709
Matrix coefficients : BT.709
Audio #2
ID : 2
Format : AC-3
Format/Info : Audio Coding 3
Mode extension : CM (complete main)
Format settings, Endianness : Big
Codec ID : A_AC3
Duration : 2h 2mn
Bit rate mode : Constant
Bit rate : 384 Kbps
Channel(s) : 2 channels
Channel positions : Front: L R
Sampling rate : 48.0 KHz
Bit depth : 16 bits
Compression mode : Lossy
Stream size : 337 MiB (6%)
Default : Yes
Forced : No




реклама партнёра


Вернуться к началу
 Профиль Отправить личное сообщение  
 
   Похожие торренты   Автор   Торрент   Размер 
В этой теме нет новых непрочитанных сообщений. Поглощён Отряд самоубийц / Suicide Squad [фантастика, боевик, триллер, комедия, криминал, приключения, 2016] WEBRip, dub [Звук с TS] Данный торрент является блокированным, причина: поглощённый торрент

marya111

6635 | 580

1.37 ГБ

В этой теме нет новых непрочитанных сообщений. Отряд самоубийц / Suicide Squad [фантастика, боевик, триллер, комедия, криминал, приключения, 2016] WEBRip] Dub [чистый звук]

salma3

441 | 2311

2.05 ГБ

В этой теме нет новых непрочитанных сообщений. Отряд самоубийц / Suicide Squad (фантастика, фэнтези, боевик, триллер, криминал, 2016) WEB-DL 1080р | Расширенная версия | iTunes + А

marya111

1744 | 206

5.42 ГБ

В этой теме нет новых непрочитанных сообщений. Отряд самоубийц / Suicide Squad [Фантастика, фэнтези, боевик, приключения, 2016] WEBRip, avo

marya111

1435 | 211

745.21 МБ

В этой теме нет новых непрочитанных сообщений. Отряд самоубийц / Suicide Squad [фантастика, фэнтези, боевик, приключения, 2016] WEBRip 720p, avo

marya111

2489 | 106

3.32 ГБ

В этой теме нет новых непрочитанных сообщений. Отряд самоубийц / Suicide Squad ( фантастика, фэнтези, боевик, триллер, криминал, 2016) WEB-DLRip | Line

marya111

1485 | 55

1.37 ГБ

В этой теме нет новых непрочитанных сообщений. Отряд самоубийц / Suicide Squad [фантастика, боевик, триллер, 2016] WEB-DL 1080p, Dub [чистый звук]

salma3

5593 | 1013

4.68 ГБ


Начать новую тему Ответить на тему  [ 1 сообщение ] 




Для Мосгорсуда, Роскомнадзора и рекламодателей:: mosgorsud-torrent[собачка]yandex.ru