Торрент файл
скачать торрент магнет ссылка Добавлен: 08 ноя 2012, 00:50
Размер: 301.87 МБ
Сидеров: 2
Личеров: 1
Автор

СообщениеДобавлено: 08 ноя 2012, 00:50 

Не в сети
5 Звёзд
Аватара пользователя
Дата регистрации:
20 апр 2012, 10:59
Возраст: 37
Спасибо: 959 / 102
Сообщения: 1288
Откуда: Москва
Проект группы Красная Плесень / Верка Смердючка против Руки в брюки - Поединок года (2003)
Жанр: Punk-Parody
Страна-производитель диска: Россия
Год издания диска: 2003
Аудио кодек: FLAC (*.flac)
Тип рипа: image+.cue
Битрейт аудио: lossless
Продолжительность: 41:00
Источник (релизер): Оригинальный CD. Собственный рип. Сканы прилагаются
Наличие сканов в содержимом раздачи: да


Верка Смердючка против Руки в брюки:
01 Верка Смердючка - Пыво (2:46)
02 Руки в брюки - Девчонки (1:53)
03 Верка Смердючка - Почему я бэз баяна (3:29)
04 Руки в брюки - Повестка (3:11)
05 Верка Смердючка - Собака пся (2:24)
06 Руки в брюки - Зухра и кальян (3:04)
07 Верка Смердючка - Сало (3:31)
08 Руки в брюки - Я 2002-й (2:28)
09 Верка Смердючка - Дай похмэлытыся (2:58)
10 Руки в брюки - Жили у бабуси (2:31)
11 Верка Смердючка - Свадебная (2:59)
12 Руки в брюки - Я уколов не боюсь (1:48)
13 Верка Смердючка - Я шла, шла, шла (3:24)
14 Руки в брюки - Две дорожки белой пудры (2:00)
15 Реклама (2:34)

Лог создания рипа
Код:
Exact Audio Copy V0.99 prebeta 5 from 4. May 2009
Отчёт EAC об извлечении, выполненном 11. сентября 2010, 12:20
Various / Верка Смердючка против Руки в брюки.
Дисковод: Optiarc DVD RW AD-7200SAdapter: 3ID: 0
Режим чтения: Достоверность
Использование точного потока : Да
Отключение кэша аудио: Да
Использование указателей C2: Нет
Коррекция смещения при чтении: 48
Способность читать области Lead-in и Lead-out: Нет
Заполнение пропущенных сэмплов тишиной: Да
Удаление блоков с тишиной в начале и конце: Нет
При вычислениях CRC использовались нулевые сэмплы : Да
Интерфейс: Встроенный Win32-интерфейс для Win NT/2000
Выходной формат: Пользовательский кодировщик
Выбранный битрейт: 1023 kBit/s
Качество: Высокий
Добавление ID3-тэга: Да
Утилита сжатия: C:\Program Files\FLAC\flac.exe
TOC извлечённого CD
Трек |Старт| Длительность | Начальный сектор | Конечный сектор
---------------------------------------------------------------------
1|0:00.00 |2:46.00|0|12449
2|2:46.00 |1:52.58|12450|20907
3|4:38.58 |3:29.16|20908|36598
4|8:07.74 |3:11.35|36599|50958
5| 11:19.34 |2:23.51|50959|61734
6| 13:43.10 |3:03.58|61735|75517
7| 16:46.68 |3:30.72|75518|91339
8| 20:17.65 |2:28.11|91340|102450
9| 22:46.01 |2:58.24|102451|115824
10| 25:44.25 |2:31.03|115825|127152
11| 28:15.28 |2:59.28|127153|140605
12| 31:14.56 |1:48.32|140606|148737
13| 33:03.13 |3:23.50|148738|164012
14| 36:26.63 |1:59.40|164013|172977
15| 38:26.28 |2:34.27|172978|184554
Характеристики диапазона извлечения и сообщения об ошибках
Выбранный диапазон
Имя файла C:\Users\Vania\Desktop\Various - Верка Смердючка против Руки в брюки..wav
Пиковый уровень 93.3 %
Качество диапазона 100.0 %
CRC копии F40260FE
Копирование... OK
Ошибок не произошло
Конец отчёта



Вернуться к началу
 Профиль Отправить личное сообщение  
 
   Похожие торренты   Автор   Торрент   Размер 
В этой теме нет новых непрочитанных сообщений. Беломорканал - "Лагеря" (Избранное) (2000) [FLAC|Lossless|image + .cue]

salma3

0 | 1

498.17 МБ

В этой теме нет новых непрочитанных сообщений. Твои руки на моей заднице / Laisse tes mains sur mes hanches [мелодрама, комедия, 2003] DVDRip, Dvo

salma3

47 | 3

1.46 ГБ

В этой теме нет новых непрочитанных сообщений. Твои руки на моей заднице / Laisse tes mains sur mes hanches [Комедия, мелодрама, 2003] DVDRip-AVC, Dvo

salma3

116 | 32

1.46 ГБ

В этой теме нет новых непрочитанных сообщений. CD - В.В.Царев - За Дымкой Питерской Тиши - VVTcSPb-2014 - Flac-Cue - lossless

antoroman

4 | 1

534.55 МБ

В этой теме нет новых непрочитанных сообщений. CD - ASaMSPb - Мы - Лирика - 001 - (Монологи в Стихах) - 2015 - Live - Flac-Cue - lossless

antoroman

7 | 1

519.05 МБ

В этой теме нет новых непрочитанных сообщений. Фредди против Джейсона / Freddy vs. Jason [ужасы, боевик, триллер, 2003] BDRip-HEVC 1080p, Dub

salma3

0 | 0

5.48 ГБ

В этой теме нет новых непрочитанных сообщений. Фредди против Джейсона / Freddy vs. Jason [ужасы, боевик, триллер, 2003] BDRip 720p, Dub [iPad]

salma3

0 | 0

2.49 ГБ


СообщениеДобавлено: 12 ноя 2016, 18:39 

Не в сети
Аватара пользователя
Дата регистрации:
04 ноя 2016, 19:07
Возраст: 36
Спасибо: 0 / 0
Сообщения: 104
Откуда: Madagascar
Understand me?

_________________
fat burning food


Вернуться к началу
 Профиль Отправить личное сообщение  
 
Начать новую тему Ответить на тему  [ Сообщений: 2 ] 




Для Мосгорсуда, Роскомнадзора и рекламодателей:: mosgorsud-torrent[собачка]yandex.ru
cron