Торрент файл
скачать торрент магнет ссылка Добавлен: 02 фев 2015, 08:35
Размер: 495.66 МБ
Сидеров: 6
Личеров: 6
Автор

СообщениеДобавлено: 02 фев 2015, 08:35 

Не в сети
Супермодератор
Аватара пользователя
Дата регистрации:
06 июн 2014, 07:51
Спасибо: 623 / 0
Сообщения: 2001
Страна: СССР
Производство: Мосфильм

Жанр: музыка
Год выпуска: 1941
Продолжительность: 00:33:54

Перевод: Не требуется
Cубтитры: нет
Оригинальная аудиодорожка: русский

Режиссер: Илья Трауберг, Александр Медведкин

В ролях:
Вячеслав Гостинский, Галина Фролова, Борис Чирков, Лидия Смирнова, А. Кузнецова...

Участвуют:
Гос. народный хор им. Пятницкого п/р В. Захарова и П. Казьмина, Краснознаменный ансамбль красноармейской песни и пляски СССР п/р А. Александрова, Гос. ансамбль народных танцев п/р И. Моисеева.

Описание:
В фильме исполняются музыкальные номера «Прощальная», «Иди, любимый», «На заре, на зорюшке», «До свиданья, города и хаты», «Оборонные частушки», «Красноармейская пляска», «Кадриль», «Колхозная сюита». В финале поется «Священная война» — это одно из первых ее исполнений. Часть съемок была произведена в декорациях к фильму «Свинарка и пастух».



Источник: DVD5 R5
Качество видео: DVDRip
Формат видео: AVI

Видео: 688x512 (4:3), 25 fps, XviD ~ 1842 kbps avg, 0.209 bit/pixel
Аудио: 48 kHz, Dolby Digital AC3 2.0, 192 kbps

Общее
Полное имя : My.zhdem.vas.s.pobedoy.1941.DVDRip_[New-team]_by_AVP_Studio.avi
Формат : AVI
Формат/Информация : Audio Video Interleave
Размер файла : 496 Мбайт
Продолжительность : 33 м.
Общий поток : 2044 Кбит/сек
Программа кодирования : VirtualDubModRus 1.5.10.2 (build 2542/release)
Библиотека кодирования : VirtualDubMod build 2542/release

Видео
Идентификатор : 0
Формат : MPEG-4 Visual
Профиль формата : Advanced Simple@L5
Параметр BVOP формата : 1
Параметр QPel формата : Нет
Параметр GMC формата : Без точки перехода
Параметр матрицы формата : Выборочная
Идентификатор кодека : XVID
Идентификатор кодека/Подсказка : XviD
Продолжительность : 33 м.
Битрейт : 1842 Кбит/сек
Ширина : 688 пикселей
Высота : 512 пикселей
Соотношение сторон : 4:3
Частота кадров : 25,000 кадров/сек
Цветовое пространство : YUV
Субдискретизация насыщенности : 4:2:0
Битовая глубина : 8 бит
Тип развёртки : Прогрессивная
Метод сжатия : С потерями
Бит/(Пиксели*Кадры) : 0.209
Размер потока : 447 Мбайт (90%)
Библиотека кодирования : XviD 73

Аудио
Идентификатор : 1
Формат : AC-3
Формат/Информация : Audio Coding 3
Расширение режима : CM (complete main)
Параметр Endianness формата : Big
Идентификатор кодека : 2000
Продолжительность : 33 м.
Вид битрейта : Постоянный
Битрейт : 192 Кбит/сек
Каналы : 2 канала
Расположение каналов : Front: L R
Частота : 48,0 КГц
Битовая глубина : 16 бит
Метод сжатия : С потерями
Размер потока : 46,6 Мбайт (9%)
Выравнивание : Разделение по промежуткам
Продолжительность промежутка : 40 мс. (1,00 видеокадр)
Время предзагрузки промежутка : 500 мс




реклама партнёра


Вернуться к началу
 Профиль Отправить личное сообщение  
 
   Похожие торренты   Автор   Торрент   Размер 
В этой теме нет новых непрочитанных сообщений. Илья Старинов. Личный враг Гитлера (Александр Евсюков) [Документальный, история, 2014] SATRip

Dracon

9 | 6

551.18 МБ

В этой теме нет новых непрочитанных сообщений. Конек-Горбунок [фэнтези, семейный, 1941] DVDRip-AVC

salma3

13 | 8

1.46 ГБ

В этой теме нет новых непрочитанных сообщений. 4 (Илья Хржановский) [2005, драма, фантастика, триллер, DVDRip]

marya111

56 | 14

1.46 ГБ

В этой теме нет новых непрочитанных сообщений. Дамбо / Dumbo (1941) BDRip HEVC 720p | D, P2

marya111

5 | 0

1.64 ГБ

В этой теме нет новых непрочитанных сообщений. Дамбо / Dumbo (1941) BDRip HEVC 1080p | D, P2

marya111

10 | 0

2.62 ГБ

В этой теме нет новых непрочитанных сообщений. #ВСЕ_ИСПРАВИТЬ!?! [драма, музыка, комедия, 2016] DVDRip [Лицензия]

Dracon

326 | 31

1.37 ГБ

В этой теме нет новых непрочитанных сообщений. Горный хрусталь / Rhinestone [комедия, музыка, 1984] DVDRip, Avo

salma3

11 | 2

1.46 ГБ


Начать новую тему Ответить на тему  [ 1 сообщение ] 




Для Мосгорсуда, Роскомнадзора и рекламодателей:: mosgorsud-torrent[собачка]yandex.ru