Торрент файл
скачать торрент магнет ссылка Добавлен: 07 дек 2014, 12:43
Размер: 20.63 ГБ
Сидеров: 32
Личеров: 8
Автор

СообщениеДобавлено: 07 дек 2014, 12:43 

Не в сети
Зам. Админа
Аватара пользователя
Дата регистрации:
02 дек 2010, 12:39
Спасибо: 12625 / 214
Сообщения: 28010
Год выпуска: 2014
Жанр: Symphonic Metal, Gothic Rock, Power Metal

Состав группы:
Sharon den Adel – vocals
Ruud Jolie – lead guitar
Stefan Helleblad – rhythm guitar
Martijn Spierenburg – keyboards
Jeroen van Veen – bass guitar
Mike Coolen - drums

О концерте:
Запись концерта в Амстердаме, Heineken Music Hall в мае 2014, в рамках мирового турне Hydra. Запись концерта в Антверпене в 2012 Elements. Within Temptation (в пер. с англ. - «В искушении») - музыкальная группа из европейского государства Нидерланды, основанная в 1996 году гитаристом Робертом Вестерхольтом и вокалисткой Шарон ден Адель. История Within Temptation начинается с группы The Circle, которую создали Robert Westerholt, Jeroen van Veen и Martijn Spierenburg, когда им было по 17 лет (1992—1993). Они записали свое первое демо, которое получило хорошие отзывы со стороны многих звукозаписывающих компаний. Несмотря на этот успех, группа распалась по различным причинам.

Elements Concert:
01 Iron
02 In The Middle Of The Night
03 Faster
04 Fire And Ice
05 Our Solemn Hour
06 Stand My Ground
07 Angels
08 Sanctuary
09 The Last Dance
10 Say My Name
11 Candles
12 Sinead
13 The Promise
14 Mother Earth
15 Ice Queen
16 Stairway To The Skies

Hydra Concert:
01 Let Us Burn
02 Paradise (What About Us?)
03 Faster
04 Iron
05 Edge Of The World
06 In The Middle Of The Night
07 Dangerous
08 And We Run
09 Stand My Ground
10 Covered By Roses
11 Mother Earth
12 What Have You Done
13 Silver Moonlight
14 Whole World Is Watching
15 Sinead
16 Ice Queen

Выпущено: США, Nuclear Blast
Продолжительность: 02:51:33
Перевод: Не требуется

Кодек: H.264
Качество: Blu-Ray Remux 1080i
Видео: MPEG-4 AVC, 16571 Кбит/с, 1920x1080, 25.000 кадр/с
Звук: Английский (AC3, 2 ch, 192 Кбит/с), (AC3, 6 ch, 448 Кбит/с)

Полное имя : D:Раздачи_DWithin.Temptation.Let.Us.Burn.2014.BDRemux.1080i.NovaLan.mkv
Формат : Matroska
Версия формата : Version 4 / Version 2
Размер файла : 20,6 Гбайт
Продолжительность : 2 ч. 51 м.
Режим общего битрейта : Переменный
Общий поток : 17,2 Мбит/сек
Название фильма : Within Temptation: Let Us Burn 2014 - NovaLan
Дата кодирования : UTC 2014-12-07 02:35:31
Программа кодирования : mkvmerge v7.3.0 ('Nouages') 64bit built on Oct 22 2014 18:53:34
Библиотека кодирования : libebml v1.3.0 + libmatroska v1.4.1
DURATION : 02:51:33.152000000
NUMBER_OF_FRAMES : 321661
NUMBER_OF_BYTES : 576416512
_STATISTICS_WRITING_APP : mkvmerge v7.3.0 ('Nouages') 64bit built on Oct 22 2014 18:53:34
_STATISTICS_WRITING_DATE_UTC : 2014-12-07 02:35:31
_STATISTICS_TAGS : BPS DURATION NUMBER_OF_FRAMES NUMBER_OF_BYTES

Видео
Идентификатор : 1
Формат : AVC
Формат/Информация : Advanced Video Codec
Профиль формата : High@L4.1
Параметр CABAC формата : Да
Параметр ReFrames формата : 4 кадра
Параметр GOP формата : M=3, N=24
Идентификатор кодека : V_MPEG4/ISO/AVC
Продолжительность : 2 ч. 51 м.
Вид битрейта : Переменный
Битрейт : 16,2 Мбит/сек
Максимальный битрейт : 28,0 Мбит/сек
Ширина : 1920 пикселей
Высота : 1080 пикселей
Соотношение сторон : 16:9
Частота кадров : 25,000 кадров/сек
Стандарт вещания : PAL
Цветовое пространство : YUV
Субдискретизация насыщенности : 4:2:0
Битовая глубина : 8 бит
Тип развёртки : MBAFF
Бит/(Пиксели*Кадры) : 0.313
Размер потока : 19,4 Гбайт (94%)
Заголовок : Within Temptation: Let Us Burn 2014 - NovaLan
Default : Да
Forced : Нет
Основные цвета : BT.709-5, BT.1361, IEC 61966-2-4, SMPTE RP177
Характеристики трансфера : BT.709-5, BT.1361
Коэффициенты матрицы : BT.709-5, BT.1361, IEC 61966-2-4 709, SMPTE RP177

Аудио #1
Идентификатор : 2
Формат : AC-3
Формат/Информация : Audio Coding 3
Расширение режима : CM (complete main)
Параметр Endianness формата : Big
Идентификатор кодека : A_AC3
Продолжительность : 2 ч. 51 м.
Вид битрейта : Постоянный
Битрейт : 192 Кбит/сек
Каналы : 2 канала
Расположение каналов : Front: L R
Частота : 48,0 КГц
Битовая глубина : 16 бит
Метод сжатия : С потерями
Размер потока : 236 Мбайт (1%)
Язык : English
Default : Да
Forced : Нет

Аудио #2
Идентификатор : 3
Формат : AC-3
Формат/Информация : Audio Coding 3
Расширение режима : CM (complete main)
Параметр Endianness формата : Big
Идентификатор кодека : A_AC3
Продолжительность : 2 ч. 51 м.
Вид битрейта : Постоянный
Битрейт : 448 Кбит/сек
Каналы : 6 каналов
Расположение каналов : Front: L C R, Side: L R, LFE
Частота : 48,0 КГц
Битовая глубина : 16 бит
Метод сжатия : С потерями
Размер потока : 550 Мбайт (3%)
Язык : English
Default : Нет
Forced : Нет

Меню
00:00:00.000 : en:Chapter 1
00:05:44.319 : en:Chapter 2
00:11:23.240 : en:Chapter 3
00:16:34.720 : en:Chapter 4
00:21:06.680 : en:Chapter 5
00:25:02.839 : en:Chapter 6
00:30:13.920 : en:Chapter 7
00:34:44.719 : en:Chapter 8
00:38:58.880 : en:Chapter 9
00:41:00.480 : en:Chapter 10
00:45:27.360 : en:Chapter 11
00:49:35.599 : en:Chapter 12
00:56:42.320 : en:Chapter 13
01:01:01.639 : en:Chapter 14
01:09:03.399 : en:Chapter 15
01:14:47.680 : en:Chapter 16
01:19:40.920 : en:Chapter 17
01:30:11.136 : en:Chapter 18
01:31:16.416 : en:Chapter 19
01:36:31.895 : en:Chapter 20
01:41:55.975 : en:Chapter 21
01:46:16.136 : en:Chapter 22
01:51:55.855 : en:Chapter 23
01:56:54.136 : en:Chapter 24
02:02:09.136 : en:Chapter 25
02:07:01.576 : en:Chapter 26
02:10:59.176 : en:Chapter 27
02:15:24.496 : en:Chapter 28
02:21:10.296 : en:Chapter 29
02:27:18.174 : en:Chapter 30
02:32:22.495 : en:Chapter 31
02:37:40.855 : en:Chapter 32
02:40:44.456 : en:Chapter 33
02:44:16.615 : en:Chapter 34
02:50:09.247 : en:Chapter 35



Релиз группа NovaLan
Автор сборки Sergei7721






реклама партнёра


Вернуться к началу
 Профиль  
 
   Похожие торренты   Автор   Торрент   Размер 
В этой теме нет новых непрочитанных сообщений. Nightwish - Endless Forms Most Beautiful [2015, Gothic Metal, Symphonic Power Metal, MP3]

salma3

0 | 0

180.62 МБ

В этой теме нет новых непрочитанных сообщений. Nightwish - Endless Forms Most Beautiful [3CD Earbook Edition] [2015, Power Metal, Symphonic Metal, MP3]

Nickolas3435

233 | 35

515.68 МБ

В этой теме нет новых непрочитанных сообщений. Nightwish - Endless Forms Most Beautiful [3CD Earbook Edition] [2015, Power Metal, Symphonic Metal, FLAC]

Nickolas3435

86 | 9

1.52 ГБ

В этой теме нет новых непрочитанных сообщений. Cinderella - Stripped [Live] (Hard Rock, Glam Metal. 2014) MP3

Aleksandr.ru

98 | 12

182.42 МБ

В этой теме нет новых непрочитанных сообщений. Сборник клипов - Monsters of Metal Vol. 10 [2016, Black Metal, Death Metal, Gothic, WEBRip]

salma3

181 | 14

7.01 ГБ

В этой теме нет новых непрочитанных сообщений. Freedom Call - Дискография [1999-2014, Melodic power metal, MP3]

salma3

0 | 0

2.18 ГБ

В этой теме нет новых непрочитанных сообщений. Сборник клипов - Hard Rock and Metal от ALEXnROCK Диск 2 [51 шт.] [Rock, Metal, 2017] DVDRip

salma3

16 | 8

4.26 ГБ


Начать новую тему Ответить на тему  [ 1 сообщение ] 




Для Мосгорсуда, Роскомнадзора и рекламодателей:: mosgorsud-torrent[собачка]yandex.ru